Торрент файл
скачать торрент магнет ссылка Добавлен: 29 апр 2017, 12:30
Размер: 5.93 ГБ
Сидеров: 59
Личеров: 15
Статус: (salma3)
Автор

СообщениеДобавлено: 29 апр 2017, 12:30 

Не в сети
Супермодератор
Аватара пользователя
Дата регистрации:
15 фев 2012, 16:44
Возраст: 29
Спасибо: 7320 / 2147
Сообщения: 73192
Год выхода: 1995
Жанр: мультфильм, драма, приключения
Режиссер: Саймон Уэллс

В ролях: Кевин Бейкон, Боб Хоскинс, Бриджит Фонда, Джим Каммингс, Фил Коллинз, Джек Эйнджел, Дэнни Манн, Робби Рист, Джульетт Брюэр, Сандра Дикинсон

Сюжет фильма:
Наполовину лайка, наполовину волк, Балто и сам не знает кто он такой на самом деле. Всеми гонимый бродяга в ледяной пустыне Аляски. Только его друзья русский полярный гусь Борис, медвежата Мак и Лак и красавица-лайка Дженна уверены, что хотя он и не такой как все, но в его груди бьется благородное сердце. Однажды случается несчастье. Эпидемия дифтерии охватила детей небольшого поселка, а свирепая вьюга сделала непроходимыми все дороги. Лишь собачья упряжка может преодолеть шестьсот миль через ослепляющий арктический шторм и привезти спасительное лекарство. Но собаки сбились с дороги где-то на замерзших просторах. Теперь только Балто может найти упряжку и спасти детей, а заодно стать героем и настоящей легендой!



Выпущено: США
Продолжительность: 01:17:37
Перевод: Профессиональный (дублированный), Профессиональный (многоголосый закадровый), Авторский (одноголосый закадровый)

Формат: MKV
Источник: [Balto_1995_1080p_REMUX_HDCLUB]
Видео: 1280x692 at 23.976 fps, High@L4.1, ~7447 kbps
Аудио#1: Russian: 48 kHz, AC3, 2/0 (L,R) ch, ~192.00 kbps avg |Дубляж, ОРТ|
Аудио#2: Russian: 48 kHz, AC3, 2/0 (L,R) ch, ~192.00 kbps avg |Многоголосый закадровый, СТС|
Аудио#3: Russian: 48 kHz, AC3, 2/0 (L,R) ch, ~192.00 kbps avg |Многоголосый закадровый, ТК Россия|
Аудио#4: Russian: 48 kHz, AC3, 2/0 (L,R) ch, ~192.00 kbps avg |Многоголосый закадровый, UPR/Премьем мультимедия|
Аудио#5: Russian: 48 kHz, AC3, 3/2 (L,C,R,l,r) + LFE ch, ~384.00 kbps avg |Многоголосый закадровый|
Аудио#6: Russian: 48 kHz, AC3, 2/0 (L,R) ch, ~192.00 kbps avg |Многоголосый закадровый, Итнер|
Аудио#7: Russian: 48 kHz, AC3, 2/0 (L,R) ch, ~192.00 kbps avg |Одноголосый закадровый, П. Санаев|
Аудио#8: Russian: 48 kHz, AC3, 2/0 (L,R) ch, ~192.00 kbps avg |Одноголосый закадровый, Ю. Живов|
Аудио#9: Russian: 48 kHz, AC3, 2/0 (L,R) ch, ~192.00 kbps avg |Одноголосый закадровый, М. Ошурков|
Аудио#10: Russian: 48 kHz, AC3, 2/0 (L,R) ch, ~192.00 kbps avg |Одноголосый закадровый, Е. Байков|
Аудио#11: Russian: 48 kHz, AC3, 3/2 (L,C,R,l,r) + LFE ch, ~384.00 kbps avg |Одноголосый закадровый, П. Гланц|
Аудио#12: Ukrainian: 48 kHz, AC3, 3/2 (L,C,R,l,r) + LFE ch, ~384.00 kbps avg |Двухголосый закадровый|
Аудио#13: English: /, 48 kHz, AC3, 3/2 (L,C,R,l,r) + LFE ch, ~384.00 kbps avg
Субтитры: English, Russian(x2)


ЦитатаКто-то писал:
За дубляд ОРТ спасибо Haos-22.
За перевод СТС спасибо wwane.
За перевод ТК Россия спасибо Dark Kotik.
За перевод Живова спасибо wm89.
За перевод Байкова спасибо I_Am_Hell.
За перевод Ошуркова спасибо vr666 .
За перевод Санаева спасибо multmir.
За дорожку № 5 спасибо xfiles.
Сохранены оригинальные главы как на Blu-ray.
General
Unique ID : 105603597072497136832113208648180489789 (0x4F728352E6374D40264CB784C74CDE3D)
Complete name : D:КИНОБалто.(1995).BLU-RAY.720p.[-=DoMiNo=-].mkv
Format : Matroska
Format version : Version 4 / Version 2
File size : 5.93 GiB
Duration : 1 h 17 min
Overall bit rate : 10.9 Mb/s
Movie name : Балто
Deion : Наполовину лайка, наполовину волк, Балто и сам не знает кто он такой на самом деле. Всеми гонимый бродяга в ледяной пустыне Аляски. Только его друзья русский полярный гусь Борис, медвежата Мак и Лак и красавица-лайка Дженна уверены, что хотя он и не такой как все, но в его груди бьется благородное сердце.Однажды случается несчастье. Эпидемия дифтерии охватила детей небольшого поселка, а свирепая вьюга сделала непроходимыми все дороги. Лишь собачья упряжка может преодолеть шестьсот миль через ослепляющий арктический шторм и привезти спасительное лекарство.Но собаки сбились с дороги где-то на замерзших просторах. Теперь только Балто может найти упряжку и спасти детей, а заодно стать героем и настоящей легендой!
Writing application : XviD4PSP 7.0.379 DAILY
Writing library : Lavf57.41.100
Attachments : poster.jpg
ACTORS : Кевин Бейкон, Боб Хоскинс, Бриджит Фонда, Джим Каммингс, Фил Коллинз, Джек Эйнджел, Дэнни Манн, Робби Рист, Джульетт Брюэр, Сандра Дикинсон, Мириам Маргулис, Лола Бейтс-Кэмпбелл, Дональд Синден, Уильям Робертс, Гэррик Хэйгон, Билл Бэйли, Биг Аль, Майкл МакШейн, Остин Тиченор, Рид Мартин, Адам Лонг, Сэм Бакко, Дженнифер Бланк, Holly Burt, Джим Картер, Кристин Кавана, Тина Кларк, Nathan DiGesare, Джоэль Данхэм, Кэти Данэм, Эмили Эстес, Бонни Кин, Крис Родригес, Майкл Шэннон, Честер Томпсон, Фрэнк Уэлкер, Мика Уилшир, Стив Уинвуд
COMPOSER : Джеймс Хорнер
COUNTRY : США
DATE : 1995
DIRECTOR : Саймон Уэллс
ENCODING_INFO : BluRay > MKV 720p / H264 > X264 CRF 17.0 Произвольный / AC3 > COPY Безопасное / AC3 > COPY Безопасное / AC3 > COPY Безопасное / AC3 > COPY Безопасное / AC3 > COPY Безопасное / AC3 > COPY Безопасное / AC3 > COPY Безопасное / AC3 > COPY Безопасное / AC3 > COPY Безопасное / AC3 > COPY Безопасное / DTS-HD MA > AC3 CBR 384kbps / AC3 > COPY Безопасное / DTS-HD MA > AC3 CBR 384kbps
GENRE : мультфильм, драма, приключения, семейный, история
HD_VIDEO : 1
IMDB_RATING : 7.10
ITUNEXTC : mpaa|G|100|
MEDIA_TYPE : 9
ORIGINAL_ACTORS : Kevin Bacon, Bob Hoskins, Bridget Fonda, Jim Cummings, Phil Collins, Jack Angel, Danny Mann, Robbie Rist, Juliette Brewer, Sandra Dickinson, Miriam Margolyes, Lola Bates-Campbell, Donald Sinden, William Roberts, Garrick Hagon, Bill Bailey, Big Al, Michael McShane (в титрах: Mike McShane), Austin Tichenor, Reed Martin, Adam Long, Sam Bacco, Jennifer Blanc-Biehn, Jim Carter, Christine Cavanaugh, Tina Clark, Joel Dunham, Katy Dunham, Emily Estes, Bonnie Keen, Chris Rodriguez, Michael Shannon, Chester Thompson, Frank Welker, Micah Wilshire, Steve Winwood
ORIGINAL_TITLE : Balto
PRODUCER : Стив Хикнер, Рич Эронс, Кэтлин Кеннеди, Бонн Редфорд, Стивен Спилберг
RATING : 8.338
WRITER : Клифф Руби, Элана Лессер, Дэвид Стивен Коэн, Роджер С.Х. Шульман
Video
ID : 1
Format : AVC
Format/Info : Advanced Video Codec
Format profile : High@L4.1
Format settings, CABAC : Yes
Format settings, ReFrames : 8 frames
Codec ID : V_MPEG4/ISO/AVC
Duration : 1 h 17 min
Bit rate : 7 447 kb/s
Width : 1 280 pixels
Height : 692 pixels
Display aspect ratio : 1.85:1
Frame rate mode : Constant
Frame rate : 23.976 (24000/1001) FPS
Color space : YUV
Chroma subsampling : 4:2:0
Bit depth : 8 bits
Scan type : Progressive
Bits/(Pixel*Frame) : 0.351
Stream size : 4.04 GiB (68%)
Title : BLU_RAY_720p_RIP_BY_-=DoMiNo=-
Writing library : x264 core 148 r2762M 90a61ec
Encoding settings : cabac=1 / ref=8 / deblock=1:-3:-3 / analyse=0x3:0x133 / me=umh / subme=11 / psy=1 / psy_rd=1.00:0.10 / mixed_ref=1 / me_range=48 / chroma_me=1 / trellis=2 / 8x8dct=1 / cqm=0 / deadzone=21,11 / fast_pskip=0 / chroma_qp_offset=-3 / threads=6 / lookahead_threads=1 / sliced_threads=0 / nr=0 / decimate=1 / interlaced=0 / bluray_compat=0 / constrained_intra=0 / bframes=9 / b_pyramid=2 / b_adapt=2 / b_bias=0 / direct=3 / weightb=1 / open_gop=0 / weightp=2 / keyint=230 / keyint_min=23 / scenecut=40 / intra_refresh=0 / rc=crf / mbtree=0 / crf=17.0 / qcomp=0.60 / qpmin=0 / qpmax=69 / qpstep=4 / ip_ratio=1.40 / pb_ratio=1.30 / aq=1:1.00
Default : Yes
Forced : No
DURATION : 01:17:37.444000000
Audio #1
ID : 2
Format : AC-3
Format/Info : Audio Coding 3
Format settings, Endianness : Big
Codec ID : A_AC3
Duration : 1 h 17 min
Bit rate mode : Constant
Bit rate : 192 kb/s
Channel(s) : 2 channels
Channel positions : Front: L R
Sampling rate : 48.0 kHz
Frame rate : 31.250 FPS (1536 spf)
Bit depth : 16 bits
Compression mode : Lossy
Stream size : 107 MiB (2%)
Title : Дубляж, ОРТ
Language : Russian
Service kind : Complete Main
Default : Yes
Forced : No
DURATION : 01:17:37.120000000
Audio #2
ID : 3
Format : AC-3
Format/Info : Audio Coding 3
Format settings, Endianness : Big
Codec ID : A_AC3
Duration : 1 h 17 min
Bit rate mode : Constant
Bit rate : 192 kb/s
Channel(s) : 2 channels
Channel positions : Front: L R
Sampling rate : 48.0 kHz
Frame rate : 31.250 FPS (1536 spf)
Bit depth : 16 bits
Compression mode : Lossy
Stream size : 107 MiB (2%)
Title : Многоголосый закадровый, СТС
Language : Russian
Service kind : Complete Main
Default : No
Forced : No
DURATION : 01:17:37.504000000
Audio #3
ID : 4
Format : AC-3
Format/Info : Audio Coding 3
Format settings, Endianness : Big
Codec ID : A_AC3
Duration : 1 h 17 min
Bit rate mode : Constant
Bit rate : 192 kb/s
Channel(s) : 2 channels
Channel positions : Front: L R
Sampling rate : 48.0 kHz
Frame rate : 31.250 FPS (1536 spf)
Bit depth : 16 bits
Compression mode : Lossy
Stream size : 107 MiB (2%)
Title : Многоголосый закадровый, ТК Россия
Language : Russian
Service kind : Complete Main
Default : No
Forced : No
DURATION : 01:17:37.504000000
Audio #4
ID : 5
Format : AC-3
Format/Info : Audio Coding 3
Format settings, Endianness : Big
Codec ID : A_AC3
Duration : 1 h 17 min
Bit rate mode : Constant
Bit rate : 192 kb/s
Channel(s) : 2 channels
Channel positions : Front: L R
Sampling rate : 48.0 kHz
Frame rate : 31.250 FPS (1536 spf)
Bit depth : 16 bits
Compression mode : Lossy
Stream size : 107 MiB (2%)
Title : Многоголосый закадровый, UPR/Премьем мультимедия
Language : Russian
Service kind : Complete Main
Default : No
Forced : No
DURATION : 01:17:37.504000000
Audio #5
ID : 6
Format : AC-3
Format/Info : Audio Coding 3
Format settings, Endianness : Big
Codec ID : A_AC3
Duration : 1 h 17 min
Bit rate mode : Constant
Bit rate : 384 kb/s
Channel(s) : 6 channels
Channel positions : Front: L C R, Side: L R, LFE
Sampling rate : 48.0 kHz
Frame rate : 31.250 FPS (1536 spf)
Bit depth : 16 bits
Compression mode : Lossy
Stream size : 213 MiB (4%)
Title : Многоголосый закадровый
Language : Russian
Service kind : Complete Main
Default : No
Forced : No
DURATION : 01:17:30.304000000
Audio #6
ID : 7
Format : AC-3
Format/Info : Audio Coding 3
Format settings, Endianness : Big
Codec ID : A_AC3
Duration : 1 h 17 min
Bit rate mode : Constant
Bit rate : 192 kb/s
Channel(s) : 2 channels
Channel positions : Front: L R
Sampling rate : 48.0 kHz
Frame rate : 31.250 FPS (1536 spf)
Bit depth : 16 bits
Compression mode : Lossy
Stream size : 107 MiB (2%)
Title : Многоголосый закадровый, Итнер
Language : Russian
Service kind : Complete Main
Default : No
Forced : No
DURATION : 01:17:37.504000000
Audio #7
ID : 8
Format : AC-3
Format/Info : Audio Coding 3
Format settings, Endianness : Big
Codec ID : A_AC3
Duration : 1 h 17 min
Bit rate mode : Constant
Bit rate : 192 kb/s
Channel(s) : 2 channels
Channel positions : Front: L R
Sampling rate : 48.0 kHz
Frame rate : 31.250 FPS (1536 spf)
Bit depth : 16 bits
Compression mode : Lossy
Stream size : 107 MiB (2%)
Title : Одноголосый закадровый, П. Санаев
Language : Russian
Service kind : Complete Main
Default : No
Forced : No
DURATION : 01:17:37.504000000
Audio #8
ID : 9
Format : AC-3
Format/Info : Audio Coding 3
Format settings, Endianness : Big
Codec ID : A_AC3
Duration : 1 h 17 min
Bit rate mode : Constant
Bit rate : 192 kb/s
Channel(s) : 2 channels
Channel positions : Front: L R
Sampling rate : 48.0 kHz
Frame rate : 31.250 FPS (1536 spf)
Bit depth : 16 bits
Compression mode : Lossy
Stream size : 107 MiB (2%)
Title : Одноголосый закадровый, Ю. Живов
Language : Russian
Service kind : Complete Main
Default : No
Forced : No
DURATION : 01:17:27.936000000
Audio #9
ID : 10
Format : AC-3
Format/Info : Audio Coding 3
Format settings, Endianness : Big
Codec ID : A_AC3
Duration : 1 h 17 min
Bit rate mode : Constant
Bit rate : 192 kb/s
Channel(s) : 2 channels
Channel positions : Front: L R
Sampling rate : 48.0 kHz
Frame rate : 31.250 FPS (1536 spf)
Bit depth : 16 bits
Compression mode : Lossy
Stream size : 107 MiB (2%)
Title : Одноголосый закадровый, М. Ошурков
Language : Russian
Service kind : Complete Main
Default : No
Forced : No
DURATION : 01:17:37.504000000
Audio #10
ID : 11
Format : AC-3
Format/Info : Audio Coding 3
Format settings, Endianness : Big
Codec ID : A_AC3
Duration : 1 h 17 min
Bit rate mode : Constant
Bit rate : 192 kb/s
Channel(s) : 2 channels
Channel positions : Front: L R
Sampling rate : 48.0 kHz
Frame rate : 31.250 FPS (1536 spf)
Bit depth : 16 bits
Compression mode : Lossy
Stream size : 107 MiB (2%)
Title : Одноголосый закадровый, Е. Байков
Language : Russian
Service kind : Complete Main
Default : No
Forced : No
DURATION : 01:17:37.216000000
Audio #11
ID : 12
Format : AC-3
Format/Info : Audio Coding 3
Format settings, Endianness : Big
Codec ID : A_AC3
Duration : 1 h 17 min
Bit rate mode : Constant
Bit rate : 384 kb/s
Channel(s) : 6 channels
Channel positions : Front: L C R, Side: L R, LFE
Sampling rate : 48.0 kHz
Frame rate : 31.250 FPS (1536 spf)
Bit depth : 16 bits
Compression mode : Lossy
Stream size : 213 MiB (4%)
Title : Одноголосый закадровый, П. Гланц
Language : Russian
Service kind : Complete Main
Default : No
Forced : No
DURATION : 01:17:37.536000000
Audio #12
ID : 13
Format : AC-3
Format/Info : Audio Coding 3
Format settings, Endianness : Big
Codec ID : A_AC3
Duration : 1 h 17 min
Bit rate mode : Constant
Bit rate : 384 kb/s
Channel(s) : 6 channels
Channel positions : Front: L C R, Side: L R, LFE
Sampling rate : 48.0 kHz
Frame rate : 31.250 FPS (1536 spf)
Bit depth : 16 bits
Compression mode : Lossy
Stream size : 213 MiB (4%)
Title : Двухголосый закадровый
Language : Ukrainian
Service kind : Complete Main
Default : No
Forced : No
DURATION : 01:17:37.312000000
Audio #13
ID : 14
Format : AC-3
Format/Info : Audio Coding 3
Format settings, Endianness : Big
Codec ID : A_AC3
Duration : 1 h 17 min
Bit rate mode : Constant
Bit rate : 384 kb/s
Channel(s) : 6 channels
Channel positions : Front: L C R, Side: L R, LFE
Sampling rate : 48.0 kHz
Frame rate : 31.250 FPS (1536 spf)
Bit depth : 16 bits
Compression mode : Lossy
Stream size : 213 MiB (4%)
Title : ENG
Language : English
Service kind : Complete Main
Default : No
Forced : No
DURATION : 01:17:37.504000000
Text #1
ID : 15
Format : PGS
Codec ID : S_HDMV/PGS
Codec ID/Info : Picture based subtitle format used on BDs/HD-DVDs
Title : RUS
Language : Russian
Default : Yes
Forced : No
DURATION : 01:12:35.230000000
Text #2
ID : 16
Format : PGS
Codec ID : S_HDMV/PGS
Codec ID/Info : Picture based subtitle format used on BDs/HD-DVDs
Title : RUS
Language : Russian
Default : No
Forced : No
DURATION : 01:12:06.493000000
Text #3
ID : 17
Format : PGS
Codec ID : S_HDMV/PGS
Codec ID/Info : Picture based subtitle format used on BDs/HD-DVDs
Title : ENG
Language : English
Default : No
Forced : No
DURATION : 01:12:06.739000000
Menu
00:00:00.000 : :Глава 1
00:09:51.006 : :Глава 2
00:19:07.145 : :Глава 3
00:31:06.030 : :Глава 4
00:40:07.530 : :Глава 5
00:48:47.632 : :Глава 6
00:58:10.403 : :Глава 7
01:10:34.270 : :Глава 8
01:17:37.235 : :Глава 9




_________________
Проголосуй за трекер Открытый торрент трекер - RUS-MEDIA.ORG

Проголосуй Открытый торрент трекер - RUS-MEDIA.ORG


Вернуться к началу
 Профиль Отправить личное сообщение  
 
   Похожие торренты   Автор   Торрент   Размер 
В этой теме нет новых непрочитанных сообщений. Балто / Balto [мультфильм, драма, приключения, 1995] BDRip-AVC, Dub

salma3

40 | 11

2.17 ГБ

В этой теме нет новых непрочитанных сообщений. Балто / Balto [мультфильм, драма, приключения, 1995] BDRip, Dub

salma3

44 | 9

1.37 ГБ

В этой теме нет новых непрочитанных сообщений. Роб Рой / Rob Roy [ боевик, приключения, биография, 1995] BDRip 720p, Mvo

salma3

0 | 0

7.15 ГБ

В этой теме нет новых непрочитанных сообщений. Девять / 9 [мультфильм, фантастика, фэнтези, боевик, триллер, драма, детектив, приключения, 2009] BDRip 720p, Dub+Avo+Sub

salma3

167 | 9

3.1 ГБ

В этой теме нет новых непрочитанных сообщений. Джуманджи / Jumanji [фэнтези, боевик, приключения, 1995] BDRip 720p, Dub [60 fps]

salma3

0 | 0

12.19 ГБ

В этой теме нет новых непрочитанных сообщений. Приключения Флика / A Bug's Life [Мультфильм, комедия, приключения, семейный, 1998] BDRip 720p, Dub [60 fps]

salma3

6 | 2

5.6 ГБ

В этой теме нет новых непрочитанных сообщений. Новые приключения Пса и его друзей / Рок ку-ка-ре-ку / Rock-A-Doodle [мультфильм, комедия, приключения, 1990] BDRip 720p, Dub

salma3

26 | 6

6.65 ГБ


Начать новую тему Ответить на тему  [ 1 сообщение ] 




Для Мосгорсуда, Роскомнадзора и рекламодателей:: mosgorsud-torrent[собачка]yandex.ru
cron