Торрент файл
скачать торрент магнет ссылка Добавлен: 29 апр 2017, 12:29
Размер: 2.17 ГБ
Сидеров: 40
Личеров: 11
Статус: (salma3)
Автор

СообщениеДобавлено: 29 апр 2017, 12:29 

Не в сети
Супермодератор
Аватара пользователя
Дата регистрации:
15 фев 2012, 16:44
Возраст: 28
Спасибо: 6569 / 2137
Сообщения: 43777
Год выхода: 1995
Жанр: мультфильм, драма, приключения
Режиссер: Саймон Уэллс

В ролях: Кевин Бейкон, Боб Хоскинс, Бриджит Фонда, Джим Каммингс, Фил Коллинз, Джек Эйнджел, Дэнни Манн, Робби Рист, Джульетт Брюэр, Сандра Дикинсон

Сюжет фильма:
Наполовину лайка, наполовину волк, Балто и сам не знает кто он такой на самом деле. Всеми гонимый бродяга в ледяной пустыне Аляски. Только его друзья русский полярный гусь Борис, медвежата Мак и Лак и красавица-лайка Дженна уверены, что хотя он и не такой как все, но в его груди бьется благородное сердце. Однажды случается несчастье. Эпидемия дифтерии охватила детей небольшого поселка, а свирепая вьюга сделала непроходимыми все дороги. Лишь собачья упряжка может преодолеть шестьсот миль через ослепляющий арктический шторм и привезти спасительное лекарство.
Но собаки сбились с дороги где-то на замерзших просторах. Теперь только Балто может найти упряжку и спасти детей, а заодно стать героем и настоящей легендой!



Выпущено: США
Продолжительность: 01:17:37
Перевод: Профессиональный (дублированный)

Файл
Формат: MKV
Источник: [Balto_1995_1080p_REMUX_HDCLUB]
Видео: 1032x558 at 23.976 fps, High@L4.1, ~3734 kbps
Аудио: 48 kHz, AC3, 2/0 (L,R) ch, ~192.00 kbps |Дубляж, ОРТ|
Субтитры: нет


ЦитатаКто-то писал:
За дубляд ОРТ спасибо Haos-22.
Сохранены оригинальные главы как на Blu-ray.
General
Unique ID : 68497709626708127910191679506197333091 (0x33882DD38C0BD991AB96E1D318754463)
Complete name : D:Балто.(1995).BDRIP-AVC.[-=DoMiNo=-].mkv
Format : Matroska
Format version : Version 4 / Version 2
File size : 2.17 GiB
Duration : 1 h 17 min
Overall bit rate : 4 006 kb/s
Movie name : Балто
Deion : Наполовину лайка, наполовину волк, Балто и сам не знает кто он такой на самом деле. Всеми гонимый бродяга в ледяной пустыне Аляски. Только его друзья русский полярный гусь Борис, медвежата Мак и Лак и красавица-лайка Дженна уверены, что хотя он и не такой как все, но в его груди бьется благородное сердце.Однажды случается несчастье. Эпидемия дифтерии охватила детей небольшого поселка, а свирепая вьюга сделала непроходимыми все дороги. Лишь собачья упряжка может преодолеть шестьсот миль через ослепляющий арктический шторм и привезти спасительное лекарство.Но собаки сбились с дороги где-то на замерзших просторах. Теперь только Балто может найти упряжку и спасти детей, а заодно стать героем и настоящей легендой!
Writing application : XviD4PSP 7.0.379 DAILY
Writing library : Lavf57.41.100
Attachments : poster.png
ACTORS : Кевин Бейкон, Боб Хоскинс, Бриджит Фонда, Джим Каммингс, Фил Коллинз, Джек Эйнджел, Дэнни Манн, Робби Рист, Джульетт Брюэр, Сандра Дикинсон, Мириам Маргулис, Лола Бейтс-Кэмпбелл, Дональд Синден, Уильям Робертс, Гэррик Хэйгон, Билл Бэйли, Биг Аль, Майкл МакШейн, Остин Тиченор, Рид Мартин, Адам Лонг, Сэм Бакко, Дженнифер Бланк, Holly Burt, Джим Картер, Кристин Кавана, Тина Кларк, Nathan DiGesare, Джоэль Данхэм, Кэти Данэм, Эмили Эстес, Бонни Кин, Крис Родригес, Майкл Шэннон, Честер Томпсон, Фрэнк Уэлкер, Мика Уилшир, Стив Уинвуд
COMPOSER : Джеймс Хорнер
COUNTRY : США
DATE : 1995
DIRECTOR : Саймон Уэллс
ENCODING_INFO : BluRay > MKV / H264 > X264 CRF 18.0 Произвольный / AC3 > COPY Безопасное
GENRE : мультфильм, драма, приключения, семейный, история
HD_VIDEO : 1
IMDB_RATING : 7.10
ITUNEXTC : mpaa|G|100|
MEDIA_TYPE : 9
ORIGINAL_ACTORS : Kevin Bacon, Bob Hoskins, Bridget Fonda, Jim Cummings, Phil Collins, Jack Angel, Danny Mann, Robbie Rist, Juliette Brewer, Sandra Dickinson, Miriam Margolyes, Lola Bates-Campbell, Donald Sinden, William Roberts, Garrick Hagon, Bill Bailey, Big Al, Michael McShane (в титрах: Mike McShane), Austin Tichenor, Reed Martin, Adam Long, Sam Bacco, Jennifer Blanc-Biehn, Jim Carter, Christine Cavanaugh, Tina Clark, Joel Dunham, Katy Dunham, Emily Estes, Bonnie Keen, Chris Rodriguez, Michael Shannon, Chester Thompson, Frank Welker, Micah Wilshire, Steve Winwood
ORIGINAL_TITLE : Balto
PRODUCER : Стив Хикнер, Рич Эронс, Кэтлин Кеннеди, Бонн Редфорд, Стивен Спилберг
RATING : 8.338
WRITER : Клифф Руби, Элана Лессер, Дэвид Стивен Коэн, Роджер С.Х. Шульман
Video
ID : 1
Format : AVC
Format/Info : Advanced Video Codec
Format profile : High@L4.1
Format settings, CABAC : Yes
Format settings, ReFrames : 10 frames
Codec ID : V_MPEG4/ISO/AVC
Duration : 1 h 17 min
Bit rate : 3 734 kb/s
Width : 1 032 pixels
Height : 558 pixels
Display aspect ratio : 1.85:1
Frame rate mode : Constant
Frame rate : 23.976 (24000/1001) FPS
Color space : YUV
Chroma subsampling : 4:2:0
Bit depth : 8 bits
Scan type : Progressive
Bits/(Pixel*Frame) : 0.270
Stream size : 2.02 GiB (93%)
Title : RIP_BY_-=DoMiNo=-
Writing library : x264 core 148 r2762M 90a61ec
Encoding settings : cabac=1 / ref=10 / deblock=1:-3:-3 / analyse=0x3:0x133 / me=umh / subme=11 / psy=1 / psy_rd=1.00:0.10 / mixed_ref=1 / me_range=48 / chroma_me=1 / trellis=2 / 8x8dct=1 / cqm=0 / deadzone=21,11 / fast_pskip=0 / chroma_qp_offset=-3 / threads=6 / lookahead_threads=1 / sliced_threads=0 / nr=0 / decimate=1 / interlaced=0 / bluray_compat=0 / constrained_intra=0 / bframes=12 / b_pyramid=2 / b_adapt=2 / b_bias=0 / direct=3 / weightb=1 / open_gop=0 / weightp=2 / keyint=230 / keyint_min=23 / scenecut=40 / intra_refresh=0 / rc=crf / mbtree=0 / crf=18.0 / qcomp=0.60 / qpmin=0 / qpmax=69 / qpstep=4 / ip_ratio=1.40 / pb_ratio=1.30 / aq=1:1.00
Default : Yes
Forced : No
DURATION : 01:17:37.444000000
Audio
ID : 2
Format : AC-3
Format/Info : Audio Coding 3
Format settings, Endianness : Big
Codec ID : A_AC3
Duration : 1 h 17 min
Bit rate mode : Constant
Bit rate : 192 kb/s
Channel(s) : 2 channels
Channel positions : Front: L R
Sampling rate : 48.0 kHz
Frame rate : 31.250 FPS (1536 spf)
Bit depth : 16 bits
Compression mode : Lossy
Stream size : 107 MiB (5%)
Title : DUB
Language : Russian
Service kind : Complete Main
Default : Yes
Forced : No
DURATION : 01:17:37.120000000
Menu
00:00:00.000 : :Глава 1
00:09:51.006 : :Глава 2
00:19:07.145 : :Глава 3
00:31:06.030 : :Глава 4
00:40:07.530 : :Глава 5
00:48:47.632 : :Глава 6
00:58:10.403 : :Глава 7
01:10:34.270 : :Глава 8
01:17:37.235 : :Глава 9




_________________
Проголосуй за трекер Открытый торрент трекер - RUS-MEDIA.ORG

Проголосуй Открытый торрент трекер - RUS-MEDIA.ORG



реклама партнёра


Вернуться к началу
 Профиль Отправить личное сообщение  
 
   Похожие торренты   Автор   Торрент   Размер 
В этой теме нет новых непрочитанных сообщений. Балто / Balto [мультфильм, драма, приключения, 1995] BDRip, Dub

salma3

44 | 8

1.37 ГБ

В этой теме нет новых непрочитанных сообщений. Балто / Balto [мультфильм, драма, приключения, 1995] BDRip 720p, Dub

salma3

59 | 15

5.93 ГБ

В этой теме нет новых непрочитанных сообщений. Город потерянных детей / La cité des enfants perdus [фантастика, фэнтези, драма, приключения, 1995] BDRip 1080p, Mvo+Avo

salma3

67 | 13

11.78 ГБ

В этой теме нет новых непрочитанных сообщений. Черный Плащ / Darkwing Duck [S01-03] [мультфильм, приключения, комедия, 1991-1995] WEBDLRip-AVC, Dub

salma3

187 | 184

21.66 ГБ

В этой теме нет новых непрочитанных сообщений. Девять / 9 [мультфильм, фантастика, фэнтези, боевик, триллер, драма, детектив, приключения, 2009] BDRip 720p, Dub+Avo+Sub

salma3

167 | 9

3.1 ГБ

В этой теме нет новых непрочитанных сообщений. Майор Пэйн / Major Payne [Комедия, приключения, 1995] BDRip 1080p, Mvo+Dvo+Avo+Sub

salma3

80 | 59

11.65 ГБ

В этой теме нет новых непрочитанных сообщений. Лепрекон 3: Приключения в Лас-Вегасе / Leprechaun 3 [ужасы, фэнтези, комедия, 1995] BDRip, Mvo

salma3

23 | 4

1.45 ГБ


Начать новую тему Ответить на тему  [ 1 сообщение ] 




Для Мосгорсуда, Роскомнадзора и рекламодателей:: mosgorsud-torrent[собачка]yandex.ru