Торрент файл
скачать торрент магнет ссылка Добавлен: 29 апр 2017, 12:27
Размер: 1.37 ГБ
Сидеров: 44
Личеров: 9
Статус: (salma3)
Автор

СообщениеДобавлено: 29 апр 2017, 12:27 

Не в сети
Супермодератор
Аватара пользователя
Дата регистрации:
15 фев 2012, 16:44
Возраст: 30
Спасибо: 8128 / 2147
Сообщения: 94412
Год выхода: 1995
Жанр: мультфильм, драма, приключения
Режиссер: Саймон Уэллс

В ролях: Кевин Бейкон, Боб Хоскинс, Бриджит Фонда, Джим Каммингс, Фил Коллинз, Джек Эйнджел, Дэнни Манн, Робби Рист, Джульетт Брюэр, Сандра Дикинсон

Сюжет фильма:
Наполовину лайка, наполовину волк, Балто и сам не знает кто он такой на самом деле. Всеми гонимый бродяга в ледяной пустыне Аляски. Только его друзья русский полярный гусь Борис, медвежата Мак и Лак и красавица-лайка Дженна уверены, что хотя он и не такой как все, но в его груди бьется благородное сердце. Однажды случается несчастье. Эпидемия дифтерии охватила детей небольшого поселка, а свирепая вьюга сделала непроходимыми все дороги. Лишь собачья упряжка может преодолеть шестьсот миль через ослепляющий арктический шторм и привезти спасительное лекарство.
Но собаки сбились с дороги где-то на замерзших просторах. Теперь только Балто может найти упряжку и спасти детей, а заодно стать героем и настоящей легендой!



Выпущено: США
Продолжительность: 01:17:37
Перевод: Профессиональный (дублированный)

Файл
Формат: MKV
Источник: [Balto_1995_1080p_REMUX_HDCLUB]
Видео: 720x384 at 23.976 fps, XviD 73, ~2327 kbps
Аудио: 48 kHz, AC3, 2/0 (L,R) ch, ~192.00 kbps |Дубляж, ОРТ|
Субтитры: нет

ЦитатаКто-то писал:
За дубляд ОРТ спасибо Haos-22.
Сохранены оригинальные главы как на Blu-ray.
General
Complete name : D:Балто.(1995).BDRIP.[-=DoMiNo=-].avi
Format : AVI
Format/Info : Audio Video Interleave
File size : 1.37 GiB
Duration : 1 h 17 min
Overall bit rate : 2 529 kb/s
Writing library : VirtualDub build 35491/release
Video
ID : 0
Format : MPEG-4 Visual
Format profile : Advanced Simple@L5
Format settings, BVOP : 1
Format settings, QPel : No
Format settings, GMC : No warppoints
Format settings, Matrix : Custom
Codec ID : XVID
Codec ID/Hint : XviD
Duration : 1 h 17 min
Bit rate : 2 327 kb/s
Width : 720 pixels
Height : 384 pixels
Display aspect ratio : 1.85:1
Frame rate : 23.976 (23976/1000) FPS
Color space : YUV
Chroma subsampling : 4:2:0
Bit depth : 8 bits
Scan type : Progressive
Compression mode : Lossy
Bits/(Pixel*Frame) : 0.351
Stream size : 1.26 GiB (92%)
Writing library : XviD 73
Audio
ID : 1
Format : AC-3
Format/Info : Audio Coding 3
Format settings, Endianness : Big
Codec ID : 2000
Duration : 1 h 17 min
Bit rate mode : Constant
Bit rate : 192 kb/s
Channel(s) : 2 channels
Channel positions : Front: L R
Sampling rate : 48.0 kHz
Frame rate : 31.250 FPS (1536 spf)
Bit depth : 16 bits
Compression mode : Lossy
Stream size : 107 MiB (8%)
Alignment : Aligned on interleaves
Interleave, duration : 42 ms (1.00 video frame)
Interleave, preload duratio : 512 ms
Service kind : Complete Main




_________________
Проголосуй за трекер Открытый торрент трекер - RUS-MEDIA.ORG

Проголосуй Открытый торрент трекер - RUS-MEDIA.ORG


Скачать книги и аудио книги через торрент


Вернуться к началу
 Профиль Отправить личное сообщение  
 
   Похожие торренты   Автор   Торрент   Размер 
В этой теме нет новых непрочитанных сообщений. Балто / Balto [мультфильм, драма, приключения, 1995] BDRip-AVC, Dub

salma3

40 | 11

2.17 ГБ

В этой теме нет новых непрочитанных сообщений. Балто / Balto [мультфильм, драма, приключения, 1995] BDRip 720p, Dub

salma3

59 | 15

5.93 ГБ

В этой теме нет новых непрочитанных сообщений. Каникулы Гуфи / A Goofy Movie [Мультфильм, семейный, полнометражный, 1995] BDRip 1080p, Dub

salma3

0 | 0

5.75 ГБ

В этой теме нет новых непрочитанных сообщений. История игрушек / Toy Story [Мультфильм, фэнтези, комедия, приключения, семейный, полнометражный, 1995] UHD BDRemux 2160p, Dub | 4K | [Лицензия]

NTL

0 | 0

37.91 ГБ

В этой теме нет новых непрочитанных сообщений. Белоснежка / Snow White [Мультфильм, фэнтези, драма, 1995] DVDRip, Dub

salma3

0 | 0

741.73 МБ

В этой теме нет новых непрочитанных сообщений. Джуманджи / Jumanji [фэнтези, боевик, приключения, 1995] BDRip 720p, Dub [60 fps]

salma3

0 | 0

12.19 ГБ

В этой теме нет новых непрочитанных сообщений. Король Лев / The Lion King [Мультфильм, мюзикл, драма, приключения, семейный, 2019] BDRip-HEVC 1080p, Dub [iTunes]

K15

544 | 33

6.8 ГБ


Начать новую тему Ответить на тему  [ 1 сообщение ] 




Для Мосгорсуда, Роскомнадзора и рекламодателей:: mosgorsud-torrent[собачка]yandex.ru
cron