Торрент файл
скачать торрент магнет ссылка Добавлен: 16 апр 2017, 12:31
Размер: 10.43 ГБ
Сидеров: 2794
Личеров: 2774
Статус: (salma3)
Автор

СообщениеДобавлено: 16 апр 2017, 12:31 

Не в сети
Супермодератор
Аватара пользователя
Дата регистрации:
15 фев 2012, 16:44
Возраст: 28
Спасибо: 6643 / 2146
Сообщения: 45784
Год выпуска: 2016
Жанр: Мультфильм, драма, комедия, семейный
Режиссер: Christophe Lourdelet, Гарт Дженнингс

В ролях: Мэттью МакКонахи, Риз Уизерспун, Сет МакФарлейн, Скарлетт Йоханссон, Джон Си Райли, Тэрон Эджертон, Тори Келли, Дженнифер Сондерс, Дженнифер Хадсон, Гарт Дженнингс

О фильме:
Каждое животное мечтает стать звездой. Слониха, баран, бык, и даже хрюшка, буквально все рвутся к славе. Кто знает, кому улыбнется капризная фортуна и чей портрет украсит завтра обложки глянцевых журналов. Все как у людей...



Страна: США, Великобритания, Hammer & Tongs, Illumination Entertainment, Universal Pictures
Продолжительность: 01:47:54
Перевод: Профессиональный (полное дублирование) [Лицензия]

Файл
Кодек: AVC
Качество: BDRip 1080p
Видео: AVC, 1920x1036, 23,976 fps, ~12776 kb/s
Аудио #1: AC-3, 48.0 KHz, 6 ch, 384 Kbps | Русский
Аудио #2: AC-3, 48.0 KHz, 6 ch, 640 Kbps | Английский
Субтитры: English, Spanish(Forced & full), French(Forced & full)

Релиз от: Wanterlude

Семпл

x264 [info]: frame I:1211 Avg QP:15.96 size:303473
x264 [info]: frame P:39240Avg QP:18.40 size:112646
x264 [info]: frame B:114762 Avg QP:19.34 size:48368

General
Unique ID : 188046803552373849355085552876232634804 (0x8D787F3AC9B376179E99251E42A7F1B4)
Complete name : E:Sing.2016.1080p.Wanterlude.rus.mkv
Format : Matroska
Format version : Version 4 / Version 2
File size : 10.4 GiB
Duration : 1 h 47 min
Overall bit rate : 13.8 Mb/s
Movie name : Sing | Wanterlude
Encoded date : UTC 2017-04-15 20:24:50
Writing application : mkvmerge v9.9.0 ('Pick Up') 64bit
Writing library : libebml v1.3.4 + libmatroska v1.4.5

Video
ID : 1
Format : AVC
Format/Info : Advanced Video Codec
Format profile : High@L5
Format settings, CABAC : Yes
Format settings, ReFrames : 5 frames
Codec ID : V_MPEG4/ISO/AVC
Duration : 1 h 47 min
Bit rate : 12.8 Mb/s
Width : 1 920 pixels
Height : 1 036 pixels
Display aspect ratio : 1.85:1
Frame rate mode : Constant
Frame rate : 23.976 (24000/1001) FPS
Color space : YUV
Chroma subsampling : 4:2:0
Bit depth : 8 bits
Scan type : Progressive
Bits/(Pixel*Frame) : 0.268
Stream size : 9.63 GiB (92%)
Title : Sing | Wanterlude
Writing library : x264 core 148 r2638 7599210
Encoding settings : cabac=1 / ref=5 / deblock=1:1:1 / analyse=0x3:0x133 / me=umh / subme=11 / psy=1 / psy_rd=1.00:0.00 / mixed_ref=1 / me_range=32 / chroma_me=1 / trellis=2 / 8x8dct=1 / cqm=0 / deadzone=21,11 / fast_pskip=0 / chroma_qp_offset=-2 / threads=12 / lookahead_threads=2 / sliced_threads=0 / nr=0 / decimate=0 / interlaced=0 / bluray_compat=0 / constrained_intra=0 / bframes=8 / b_pyramid=2 / b_adapt=2 / b_bias=0 / direct=3 / weightb=1 / open_gop=0 / weightp=2 / keyint=240 / keyint_min=22 / scenecut=40 / intra_refresh=0 / rc=2pass / mbtree=0 / bitrate=12776 / ratetol=1.0 / qcomp=0.60 / qpmin=0 / qpmax=69 / qpstep=4 / cplxblur=20.0 / qblur=0.5 / ip_ratio=1.40 / pb_ratio=1.30 / aq=2:1.00
Language : English
Default : Yes
Forced : No

Audio #1
ID : 2
Format : AC-3
Format/Info : Audio Coding 3
Mode extension : CM (complete main)
Format settings, Endianness : Big
Codec ID : A_AC3
Duration : 1 h 47 min
Bit rate mode : Constant
Bit rate : 384 kb/s
Channel(s) : 6 channels
Channel positions : Front: L C R, Side: L R, LFE
Sampling rate : 48.0 kHz
Frame rate : 31.250 FPS (1536 spf)
Bit depth : 16 bits
Compression mode : Lossy
Stream size : 296 MiB (3%)
Title : DUB
Language : Russian
Default : Yes
Forced : No

Audio #2
ID : 3
Format : AC-3
Format/Info : Audio Coding 3
Mode extension : CM (complete main)
Format settings, Endianness : Big
Codec ID : A_AC3
Duration : 1 h 47 min
Bit rate mode : Constant
Bit rate : 640 kb/s
Channel(s) : 6 channels
Channel positions : Front: L C R, Side: L R, LFE
Sampling rate : 48.0 kHz
Frame rate : 31.250 FPS (1536 spf)
Bit depth : 16 bits
Compression mode : Lossy
Stream size : 494 MiB (5%)
Title : Original
Language : English
Default : No
Forced : No

Text #1
ID : 4
Format : PGS
Muxing mode : zlib
Codec ID : S_HDMV/PGS
Codec ID/Info : Picture based subtitle format used on BDs/HD-DVDs
Duration : 1 h 39 min
Bit rate : 15.1 kb/s
Count of elements : 3466
Stream size : 10.7 MiB (0%)
Title : English-PGS
Language : English
Default : No
Forced : No

Text #2
ID : 5
Format : PGS
Muxing mode : zlib
Codec ID : S_HDMV/PGS
Codec ID/Info : Picture based subtitle format used on BDs/HD-DVDs
Duration : 1 h 46 min
Bit rate : 10.4 kb/s
Count of elements : 2934
Stream size : 7.97 MiB (0%)
Title : Spanish-PGS
Language : Spanish
Default : No
Forced : No

Text #3
ID : 6
Format : PGS
Muxing mode : zlib
Codec ID : S_HDMV/PGS
Codec ID/Info : Picture based subtitle format used on BDs/HD-DVDs
Duration : 1 h 46 min
Bit rate : 9 828 b/s
Count of elements : 2724
Stream size : 7.51 MiB (0%)
Title : French-PGS
Language : French
Default : No
Forced : No

Text #4
ID : 7
Format : PGS
Muxing mode : zlib
Codec ID : S_HDMV/PGS
Codec ID/Info : Picture based subtitle format used on BDs/HD-DVDs
Duration : 1 h 46 min
Bit rate : 216 b/s
Count of elements : 58
Stream size : 170 KiB (0%)
Title : Spanish-FORCED-PGS
Language : Spanish
Default : No
Forced : No

Text #5
ID : 8
Format : PGS
Muxing mode : zlib
Codec ID : S_HDMV/PGS
Codec ID/Info : Picture based subtitle format used on BDs/HD-DVDs
Duration : 1 h 43 min
Bit rate : 153 b/s
Count of elements : 46
Stream size : 117 KiB (0%)
Title : French-FORCED-PGS
Language : French
Default : No
Forced : No

Menu
00:00:00.000 : en:Chapter 01
00:04:29.352 : en:Chapter 02
00:10:36.469 : en:Chapter 03
00:14:04.677 : en:Chapter 04
00:18:32.653 : en:Chapter 05
00:25:14.721 : en:Chapter 06
00:30:04.052 : en:Chapter 07
00:35:11.776 : en:Chapter 08
00:40:07.405 : en:Chapter 09
00:44:36.131 : en:Chapter 10
00:50:26.648 : en:Chapter 11
00:55:36.207 : en:Chapter 12
01:04:40.710 : en:Chapter 13
01:14:03.981 : en:Chapter 14
01:19:17.961 : en:Chapter 15
01:23:59.159 : en:Chapter 16
01:26:56.461 : en:Chapter 17
01:30:38.266 : en:Chapter 18
01:34:47.181 : en:Chapter 19
01:40:16.010 : en:Chapter 20



_________________
Проголосуй за трекер Открытый торрент трекер - RUS-MEDIA.ORG

Проголосуй Открытый торрент трекер - RUS-MEDIA.ORG



реклама партнёра


Вернуться к началу
 Профиль Отправить личное сообщение  
 
   Похожие торренты   Автор   Торрент   Размер 
В этой теме нет новых непрочитанных сообщений. Зверопой / Sing [мультфильм, драма, комедия, семейный, 2016] BDRip, Dub [Лицензия]

salma3

1025 | 55

1.46 ГБ

В этой теме нет новых непрочитанных сообщений. Зверопой / Sing [мультфильм, комедия, семейный, 2016] BDRip-AVC, Dub+Sub [Лицензия]

salma3

832 | 261

2.02 ГБ

В этой теме нет новых непрочитанных сообщений. Зверопой / Sing [Мультфильм, комедия, семейный, 2016] BDRip 720p, Dub+Sub [Лицензия]

salma3

3573 | 2043

6.55 ГБ

В этой теме нет новых непрочитанных сообщений. Зверопой / Sing (мультфильм, драма, комедия, семейный, музыка, 2016) TS | L

marya111

4307 | 519

1.37 ГБ

В этой теме нет новых непрочитанных сообщений. Аисты / Storks [мультфильм, фэнтези, комедия, приключения, семейный, 2016] BDRip 1080p, Dub [Лицензия]

salma3

59 | 14

8.86 ГБ

В этой теме нет новых непрочитанных сообщений. В поисках Дори / Finding Dory (мультфильм, комедия, приключения, семейный, 2016) BDRip 1080p | Лицензия

marya111

206 | 12

12.46 ГБ

В этой теме нет новых непрочитанных сообщений. В поисках Дори / Finding Dory [мультфильм, комедия, приключения, семейный, 2016] BDRip 1080p, Dub [3D-Video] [Лицензия]

salma3

153 | 84

10.39 ГБ


Начать новую тему Ответить на тему  [ 1 сообщение ] 




Для Мосгорсуда, Роскомнадзора и рекламодателей:: mosgorsud-torrent[собачка]yandex.ru