Торрент файл
скачать торрент магнет ссылка Добавлен: 16 апр 2017, 12:24
Размер: 2.02 ГБ
Сидеров: 832
Личеров: 261
Статус: (salma3)
Автор

СообщениеДобавлено: 16 апр 2017, 12:24 

Не в сети
Супермодератор
Аватара пользователя
Дата регистрации:
15 фев 2012, 16:44
Возраст: 28
Спасибо: 6644 / 2146
Сообщения: 45843
Год выпуска: 2016
Жанр: мультфильм, комедия, семейный
Режиссер:Кристоф Лурделе, Гарт Дженнингс / Christophe Lourdelet, Garth Jennings

В ролях:Мэттью МакКонахи, Риз Уизерспун, Сет МакФарлейн, Скарлетт Йоханссон, Джон Си Райли, Тэрон Эджертон, Тори Келли, Дженнифер Сондерс, Дженнифер Хадсон, Гарт Дженнингс

Описание:
В мире, который населяют звери, коала по имени Бастер Мун изо всех сил пытается предотвратить закрытие своего театра. В итоге Бастер и его друг, баран Эдди, устраивают конкурс певцов, предлагая принять участие каждому жителю города.

Выпущено: США
Продолжительность: 01:47:532
Перевод: Профессиональный (полное дублирование)[Лицензия]

Файл
Качество: BDRip-AVC
Видео: 1008x544 (1,85:1), 23.976 fps, x264 ~1872 kbps avg, 0.142 bit/pixel
Аудио #1: 48 kHz, AC3 Dolby Digital, 3/2 (L,C,R,l,r) + LFE ch, ~384 kbps avg
Аудио #2: 48 kHz, AC3 Dolby Digital, 3/2 (L,C,R,l,r) + LFE ch, ~384 kbps avg
Субтитры: Русские, Английские (полные, SDH) (.srt*)

Навигация по главам: Есть (20 глав)

Общее
Полное имя : D:Zveropoy_2016_BDRip-AVC_by_Dalemake.mkv
Формат : Matroska
Версия формата : Version 4 / Version 2
Размер файла : 2,02 Гбайт
Продолжительность : 1 ч. 47 м.
Общий поток : 2686 Кбит/сек
Название фильма : [Sing_2016_All Films_by Dalemake]
Дата кодирования : UTC 2017-04-15 20:26:20
Программа кодирования : mkvmerge v7.8.0 ('River Man') 32bit built on Apr 3 2015 12:11:22
Библиотека кодирования : libebml v1.3.1 + libmatroska v1.4.2
DURATION : 01:39:02.824000000
NUMBER_OF_FRAMES : 1378
NUMBER_OF_BYTES : 67157
_STATISTICS_WRITING_APP : mkvmerge v7.8.0 ('River Man') 32bit built on Apr 3 2015 12:11:22
_STATISTICS_WRITING_DATE_UTC : 2017-04-15 20:26:20
_STATISTICS_TAGS : BPS DURATION NUMBER_OF_FRAMES NUMBER_OF_BYTES

Видео
Идентификатор : 1
Формат : AVC
Формат/Информация : Advanced Video Codec
Профиль формата : High@L4.1
Параметр CABAC формата : Да
Параметр ReFrames формата : 10 кадров
Идентификатор кодека : V_MPEG4/ISO/AVC
Продолжительность : 1 ч. 47 м.
Битрейт : 1864 Кбит/сек
Ширина : 1008 пикселей
Высота : 544 пикселя
Соотношение сторон : 1,85:1
Частота кадров : 23,976 кадра/сек
Цветовое пространство : YUV
Субдискретизация насыщенности : 4:2:0
Битовая глубина : 8 бит
Тип развёртки : Прогрессивная
Бит/(Пиксели*Кадры) : 0.142
Размер потока : 1,41 Гбайт (69%)
Заголовок : [Sing_2016_All Films_by Dalemake]
Библиотека кодирования : x264 core 146 r2538 121396c
Настройки программы : cabac=1 / ref=10 / deblock=1:-2:-2 / analyse=0x3:0x133 / me=umh / subme=11 / psy=1 / psy_rd=1.00:0.00 / mixed_ref=1 / me_range=48 / chroma_me=1 / trellis=2 / 8x8dct=1 / cqm=0 / deadzone=21,11 / fast_pskip=1 / chroma_qp_offset=-4 / threads=6 / lookahead_threads=1 / sliced_threads=0 / nr=0 / decimate=0 / interlaced=0 / bluray_compat=0 / constrained_intra=0 / bframes=11 / b_pyramid=2 / b_adapt=2 / b_bias=0 / direct=1 / weightb=1 / open_gop=0 / weightp=2 / keyint=240 / keyint_min=23 / scenecut=40 / intra_refresh=0 / rc_lookahead=60 / rc=crf / mbtree=0 / crf=19.6 / qcomp=0.60 / qpmin=0 / qpmax=69 / qpstep=4 / vbv_maxrate=50000 / vbv_bufsize=62500 / crf_max=0.0 / nal_hrd=none / filler=0 / ip_ratio=1.35 / pb_ratio=1.30 / aq=1:1.00
Default : Да
Forced : Нет

Аудио #1
Идентификатор : 2
Формат : AC-3
Формат/Информация : Audio Coding 3
Расширение режима : CM (complete main)
Параметр Endianness формата : Big
Идентификатор кодека : A_AC3
Продолжительность : 1 ч. 47 м.
Вид битрейта : Постоянный
Битрейт : 384 Кбит/сек
Каналы : 6 каналов
Расположение каналов : Front: L C R, Side: L R, LFE
Частота : 48,0 КГц
Битовая глубина : 16 бит
Метод сжатия : С потерями
Размер потока : 296 Мбайт (14%)
Заголовок : Dub - R5
Язык : Russian
Default : Да
Forced : Нет

Аудио #2
Идентификатор : 3
Формат : AC-3
Формат/Информация : Audio Coding 3
Расширение режима : CM (complete main)
Параметр Endianness формата : Big
Идентификатор кодека : A_AC3
Продолжительность : 1 ч. 47 м.
Вид битрейта : Постоянный
Битрейт : 384 Кбит/сек
Каналы : 6 каналов
Расположение каналов : Front: L C R, Side: L R, LFE
Частота : 48,0 КГц
Битовая глубина : 16 бит
Метод сжатия : С потерями
Размер потока : 296 Мбайт (14%)
Заголовок : Original
Язык : English
Default : Нет
Forced : Нет

Текст #1
Идентификатор : 4
Формат : UTF-8
Идентификатор кодека : S_TEXT/UTF8
Идентификатор кодека/Информация : UTF-8 Plain Text
Заголовок : Full
Язык : Russian
Default : Нет
Forced : Нет

Текст #2
Идентификатор : 5
Формат : UTF-8
Идентификатор кодека : S_TEXT/UTF8
Идентификатор кодека/Информация : UTF-8 Plain Text
Заголовок : Full
Язык : English
Default : Нет
Forced : Нет

Текст #3
Идентификатор : 6
Формат : UTF-8
Идентификатор кодека : S_TEXT/UTF8
Идентификатор кодека/Информация : UTF-8 Plain Text
Заголовок : Full - SDH
Язык : English
Default : Нет
Forced : Нет

Меню
00:00:00.000 : en:00:00:00.000
00:04:29.352 : en:00:04:29.352
00:10:36.469 : en:00:10:36.469
00:14:04.677 : en:00:14:04.677
00:18:32.653 : en:00:18:32.653
00:25:14.722 : en:00:25:14.722
00:30:04.052 : en:00:30:04.052
00:35:11.776 : en:00:35:11.776
00:40:07.405 : en:00:40:07.405
00:44:36.132 : en:00:44:36.132
00:50:26.649 : en:00:50:26.649
00:55:36.208 : en:00:55:36.208
01:04:40.710 : en:01:04:40.710
01:14:03.981 : en:01:14:03.981
01:19:17.962 : en:01:19:17.962
01:23:59.159 : en:01:23:59.159
01:26:56.461 : en:01:26:56.461
01:30:38.266 : en:01:30:38.266
01:34:47.181 : en:01:34:47.181
01:40:16.010 : en:01:40:16.010


_________________
Проголосуй за трекер Открытый торрент трекер - RUS-MEDIA.ORG

Проголосуй Открытый торрент трекер - RUS-MEDIA.ORG



реклама партнёра


Вернуться к началу
 Профиль Отправить личное сообщение  
 
   Похожие торренты   Автор   Торрент   Размер 
В этой теме нет новых непрочитанных сообщений. Зверопой / Sing [Мультфильм, комедия, семейный, 2016] BDRip 720p, Dub+Sub [Лицензия]

salma3

3573 | 2043

6.55 ГБ

В этой теме нет новых непрочитанных сообщений. Зверопой / Sing [мультфильм, драма, комедия, семейный, 2016] BDRip, Dub [Лицензия]

salma3

1025 | 55

1.46 ГБ

В этой теме нет новых непрочитанных сообщений. Зверопой / Sing [Мультфильм, драма, комедия, семейный, 2016] BDRip 1080p, Dub+Sub [Лицензия]

salma3

2794 | 2774

10.43 ГБ

В этой теме нет новых непрочитанных сообщений. Зверопой / Sing (мультфильм, драма, комедия, семейный, музыка, 2016) TS | L

marya111

4307 | 519

1.37 ГБ

В этой теме нет новых непрочитанных сообщений. Аисты / Storks [Мультфильм, фэнтези, комедия, семейный, 2016] BDRip-AVC, Dub [Лицензия ]

salma3

344 | 47

1.46 ГБ

В этой теме нет новых непрочитанных сообщений. Аисты / Storks [мультфильм, фэнтези, комедия, приключения, семейный, 2016] BDRip-AVC, Dub [Лицензия]

salma3

376 | 111

2.18 ГБ

В этой теме нет новых непрочитанных сообщений. Аисты / Storks ( мультфильм, фэнтези, комедия, приключения, семейный, 2016) BDRip от HQCLUB | D | Лицензия

marya111

157 | 16

1.45 ГБ


Начать новую тему Ответить на тему  [ 1 сообщение ] 




Для Мосгорсуда, Роскомнадзора и рекламодателей:: mosgorsud-torrent[собачка]yandex.ru