Торрент файл
скачать торрент магнет ссылка Добавлен: 10 апр 2011, 22:19
Размер: 2.27 ГБ
Сидеров: 20
Личеров: 11
Автор

СообщениеДобавлено: 10 апр 2011, 22:19 

Не в сети
Супермодератор
Аватара пользователя
Дата регистрации:
22 май 2010, 11:03
Возраст: 31
Спасибо: 7508 / 13
Сообщения: 49940
Тайна Келлc / The Secret of Kells



Перевод: Любительский одноголосый (русский), любительский двухголосый (русский),любительский многоголосый (украинский)
Субтитры: русские, английские

Формат: BDRip, MKV, H.264, AC3
Страна: Ирландия, Франция, Бельгия
Режиссер: Томм Мур / Tomm Moore
Жанр: фэнтези, приключения
Продолжительность: 01:18:43
Год выпуска: 2009

В ролях: Венис дю Буа дю Рой,Брендан Глисон,Лиам Хурикан,Мик Лэлли,Майкл МакГрат,Эван МакГуайр,Кристен Муни,Пол Тайлак,Пол Янг

Описание: На дворе 9 век. В ирландской глубинке спряталось старинное аббатство Келлз, руководит им авторитарный Настоятель. Воспитанный им племянник-сирота по имени Брендан — мальчик славный и способный. Ему 12 лет, и он вместе с другими монахами старательно трудится над укреплением стен аббатства для защиты от набегов викингов.

Новая полная приключений жизнь ждет Брендана с прибытием Брата Эйдана, знаменитого мастера-иллюстратора и хранителя необычной незаконченной книги с иллюстрациями. Брат Эйдан принимает мальчика под свое крыло и посвящает его в искусство иллюстрации, пробуждая невероятный интерес и удивительный талант.


Рейтинг IMDB:7.5/10
Рейтинг Кинопоиск.RU:7.888

Видео: 1280x720p (16:9), 23.976 fps, x264 ~2463 kbps, 0.111 bit/pixel
Аудио1:(RUS) 48 kHz, AC-3, 6 ch, 640 kbps | одноголосный закадровый (Rider @ RG Декламаторы)

Аудио2:(RUS): 48 kHz, AC-3, 2 ch, 192 kbps | двухголосный закадровый (Катюша и Сергей)
Аудио3:(UKR): 48 kHz, AC-3, 2 ch, 192 kbps | многоголосный закадровый (Три крапки)
Аудио4:(ENG): 48 kHz, AC-3, 2 ch, 640 kbps | оригинальная англоязычная озвучка


Общее
Уникальный идентификатор: 221706335676260220416498426664347706361 (0xA6CB164A7A181A318E88787E4B0723F9)
Полное имя: ...\secret_of_kells_[tfile.ru]\secret_of_kells_[tfile.ru].mkv
Формат: Matroska
Размер файла: 1,71 Гбайт
Продолжительность: 1 ч. 18 м.
Общий поток: 3105 Кбит/сек
Название фильма: The Secret Of Kells (2009) BDRip by MaLLIeHbKa
Дата кодирования: UTC 2010-10-01 02:30:09
Программа кодирования: mkvmerge v4.3.0 ('Escape from the Island') built on Sep5 2010 10:30:51
Библиотека кодирования: libebml v1.0.0 + libmatroska v1.0.0
Обложка: Yes

Видео
Идентификатор: 1
Формат: AVC
Формат/Информация: Advanced Video Codec
Профиль формата:
Параметр CABAC формата: Да
Параметр ReFrames формата: 5 кадры
Режим смешивания: Header stripping
Идентификатор кодека: V_MPEG4/ISO/AVC
Продолжительность: 1 ч. 18 м.
Битрейт: 2463 Кбит/сек
Ширина: 1280 пикс.
Высота: 720 пикс.
Соотношение сторон: 16:9
Частота кадров: 23,976 кадр/сек
Цветовое пространство: YUV
Подвыборка цветности: 4:2:0
Битовая глубина: 8 бит
Тип развёртки: Прогрессивная
Бит/(Пиксели*Кадры): 0.111
Размер потока: 1,32 Гбайт (77%)
Заголовок: 1280x720p (16:9), 23.976 fps, x264 ~2463 kbps (AMIABLE)
Библиотека кодирования: x264 core 105 r1724 b02df7b
Настройки программы: cabac=1 / ref=5 / deblock=1:0:0 / analyse=0x3:0x133 / me=umh / subme=7 / psy=1 / psy_rd=1.00:0.00 / mixed_ref=1 / me_range=16 / chroma_me=1 / trellis=1 / 8x8dct=1 / cqm=0 / deadzone=21,11 / fast_pskip=0 / chroma_qp_offset=-2 / threads=12 / sliced_threads=0 / nr=0 / decimate=1 / interlaced=0 / constrained_intra=0 / bframes=3 / b_pyramid=2 / b_adapt=1 / b_bias=0 / direct=3 / weightb=1 / open_gop=0 / weightp=2 / keyint=240 / keyint_min=24 / scenecut=40 / intra_refresh=0 / rc_lookahead=40 / rc=2pass / mbtree=1 / bitrate=2463 / ratetol=1.0 / qcomp=0.60 / qpmin=10 / qpmax=51 / qpstep=4 / cplxblur=20.0 / qblur=0.5 / ip_ratio=1.40 / aq=1:1.00
Язык: English

Аудио
Идентификатор: 2
Формат: AC-3
Формат/Информация: Audio Coding 3
Расширение режима: CM (complete main)
Идентификатор кодека: A_AC3
Продолжительность: 1 ч. 18 м.
Вид битрейта: Постоянный
Битрейт: 640 Кбит/сек
Канал(ы): 6 канала(ов)
Расположение каналов: Front: L C R, Side: L R, LFE
Частота: 48,0 КГц
Битовая глубина: 16 бит
Метод сжатия: С потерями
Размер потока: 360 Мбайт (21%)
Заголовок: RUS VO (Rider) DD 5.1, 48 kHz, 640 kbps
Язык: Russian

Текст #1
Идентификатор: 3
Формат: UTF-8
Идентификатор кодека: S_TEXT/UTF8
Идентификатор кодека/Информация: UTF-8 Plain Text
Заголовок: RUS (joshua7) SRT/UTF8
Язык: Russian

Текст #2
Идентификатор: 4
Формат: UTF-8
Идентификатор кодека: S_TEXT/UTF8
Идентификатор кодека/Информация: UTF-8 Plain Text
Заголовок: ENG SRT/UTF8
Язык: English

Текст #3
Идентификатор: 5
Формат: UTF-8
Идентификатор кодека: S_TEXT/UTF8
Идентификатор кодека/Информация: UTF-8 Plain Text
Заголовок: ENG SDH SRT/UTF8
Язык: English

Меню
00:00:00.000: en:Chapter 1
00:02:13.300: en:Chapter 2
00:10:57.407: en:Chapter 3
00:19:49.897: en:Chapter 4
00:31:47.656: en:Chapter 5
00:35:53.693: en:Chapter 6
00:43:01.287: en:Chapter 7
00:49:01.522: en:Chapter 8
00:54:30.225: en:Chapter 9
00:58:43.770: en:Chapter 10
01:06:47.003: en:Chapter 11
01:13:25.568: en:Chapter 12

Общее
Полное имя: ...\secret_of_kells_[tfile.ru]\secret_of_kells_[tfile.ru]_ukr-mvo-trikrapki.ac3
Формат: AC-3
Формат/Информация: Audio Coding 3
Размер файла: 108 Мбайт
Продолжительность: 1 ч. 18 м.
Общий поток: 192 Кбит/сек

Аудио
Формат: AC-3
Формат/Информация: Audio Coding 3
Расширение режима: CM (complete main)
Продолжительность: 1 ч. 18 м.
Вид битрейта: Постоянный
Битрейт: 192 Кбит/сек
Канал(ы): 2 канала(ов)
Расположение каналов: Front: L R
Частота: 48,0 КГц
Битовая глубина: 16 бит
Метод сжатия: С потерями
Размер потока: 108 Мбайт (100%)

Общее
Полное имя: ...\secret_of_kells_[tfile.ru]\secret_of_kells_[tfile.ru].eng.ac3
Формат: AC-3
Формат/Информация: Audio Coding 3
Размер файла: 360 Мбайт
Продолжительность: 1 ч. 18 м.
Общий поток: 640 Кбит/сек

Аудио
Формат: AC-3
Формат/Информация: Audio Coding 3
Расширение режима: CM (complete main)
Продолжительность: 1 ч. 18 м.
Вид битрейта: Постоянный
Битрейт: 640 Кбит/сек
Канал(ы): 6 канала(ов)
Расположение каналов: Front: L C R, Side: L R, LFE
Частота: 48,0 КГц
Битовая глубина: 16 бит
Метод сжатия: С потерями
Размер потока: 360 Мбайт (100%)

Общее
Полное имя: ...\secret_of_kells_[tfile.ru]\secret_of_kells_[tfile.ru]_rus_dvo.ac3
Формат: AC-3
Формат/Информация: Audio Coding 3
Размер файла: 108 Мбайт
Продолжительность: 1 ч. 18 м.
Общий поток: 192 Кбит/сек

Аудио
Формат: AC-3
Формат/Информация: Audio Coding 3
Расширение режима: CM (complete main)
Продолжительность: 1 ч. 18 м.
Вид битрейта: Постоянный
Битрейт: 192 Кбит/сек
Канал(ы): 2 канала(ов)
Расположение каналов: Front: L R
Частота: 48,0 КГц
Битовая глубина: 16 бит
Метод сжатия: С потерями
Размер потока: 108 Мбайт (100%)





















реклама партнёра


Вернуться к началу
 Профиль Отправить личное сообщение  
 
   Похожие торренты   Автор   Торрент   Размер 
В этой теме нет новых непрочитанных сообщений. Тайна Мунакра / The Secret of Moonacre [фэнтези, приключения, семейный, 2008] BDRip, Dub [Лицензия]

salma3

266 | 10

1.46 ГБ

В этой теме нет новых непрочитанных сообщений. Тайна в их глазах / Secret in Their Eyes [Триллер, детектив, 2015] BDRip 720p, Dub

Dracon

729 | 11

5.76 ГБ

В этой теме нет новых непрочитанных сообщений. Тайна Рагнарока / Ragnarok [Приключения, фэнтези, боевик, 2013] BDRip 720p, dvo+sub

Dracon

208 | 22

5.43 ГБ

В этой теме нет новых непрочитанных сообщений. Три сыщика и тайна замка ужасов / The Three Investigators and the Secret of Terror Castle [детектив, приключения, семейный, 2009] DVDRip, Avo

salma3

61 | 4

1.37 ГБ

В этой теме нет новых непрочитанных сообщений. Невероятная жизнь Уолтера Митти / The Secret Life of Walter Mitty [фэнтези, драма, комедия, приключения, 2013] BDRip 720p, Dub+Sub [Лицензия]

Dracon

276 | 3

6.49 ГБ

В этой теме нет новых непрочитанных сообщений. Ночь в музее: Секрет гробницы / Night at the Museum: Secret of the Tomb (Шон Леви) [Фэнтези, комедия, приключения, семейный, 2015] BDRip 720p, dub [Звук с TS]

Dracon

47 | 4

4.51 ГБ

В этой теме нет новых непрочитанных сообщений. Ночь в музее: Секрет гробницы / Night at the Museum: Secret of the Tomb (Шон Леви) [Фэнтези, комедия, приключения, семейный, 2015] BDRip 720p, Dub+Sub [Лицензия]

Dracon

208 | 17

3.66 ГБ


Начать новую тему Ответить на тему  [ 1 сообщение ] 




Для Мосгорсуда, Роскомнадзора и рекламодателей:: mosgorsud-torrent[собачка]yandex.ru