Торрент файл
скачать торрент магнет ссылка Добавлен: 10 апр 2011, 22:18
Размер: 4.67 ГБ
Сидеров: 25
Личеров: 8
Автор

СообщениеДобавлено: 10 апр 2011, 22:18 

Не в сети
Супермодератор
Аватара пользователя
Дата регистрации:
22 май 2010, 11:03
Возраст: 32
Спасибо: 7690 / 13
Сообщения: 49871
Артур и война двух миров / Arthur et la guerre des deux mondes



Перевод: Профессиональный (полное дублирование)
Cубтитры:английские
Формат: BDRip, MKV, H.264, AC3,DTS
Страна: Франция
Режиссер: Люк Бессон
Жанр: Фэнтези, приключения, семейный, мультфильм
Продолжительность: 01:41:03
Год выпуска: 2010

В ролях: Фредди Хаймор, Миа Фэрроу, Роберт Стэнтон, Пенни Бальфур, Милен Фармер, Мишель Дюшоссуа, Майк Пауэрс, Жан-Поль Рув, Фредерик Бел, Жерар Дармон

Описание: Какие дьявольские планы собирается осуществить Урдалак, чтобы завоевать новый мир, в который он переместился обманным путем? Как Артур, оставшийся в мире минипутов, сможет победить жестокого Ужасного У? Чтобы сохранить любовь прекрасной принцессы Селени, Артур готов вступить в бой против Урдалака как в мире минипутов, так и в большом реальном мире…

Рейтинг на IMDB:6.5/10
Рейтинг на КиноПоиск.RU:5.600

Видео: 1280x544 (2.35:1), 24000 fps, AVC MPEG4 , ~4665 Кбит/с, 0.27 bit/pixel
Аудио#1:Русский 48 KHz, АС3, 6 ch, ~448 Кбит/с[Профессиональный (полное дублирование)]
Аудио#2:Английский48 KHz, DTS, 6 ch, ~1510 Кбит/с [Оригинал]

Общее
UniqueID/String: 206221037881319017847073840157142374651 (0x9B24BA29E61696F295CE02D9341D58FB)
Полное имя: C:\Documents and Settings\Admin.MICROSOF-68219C\Мои документы\Загрузки\Artur_i_vojna_dvuh_mirov.mkv
Формат: Matroska
Размер файла: 4,67 Гбайт
Продолжительность: 1 ч. 41 м.
Общий поток: 6623 Кбит/сек
Дата кодирования: UTC 2011-02-11 15:59:51
Программа кодирования: mkvmerge v3.4.0 ('Rapunzel') сборка от May 15 2010 09:38:20
Библиотека кодирования: libebml v0.8.0 + libmatroska v0.9.0

Видео
Идентификатор: 1
Формат: AVC
Формат/Информация: Advanced Video Codec
Профиль формата:
Параметр CABAC формата: Да
Параметр ReFrames формата: 5 кадры
Параметры GOP формата: M=4, N=32
Идентификатор кодека: V_MPEG4/ISO/AVC
Продолжительность: 1 ч. 41 м.
Битрейт: 4665 Кбит/сек
Ширина: 1280 пикс.
Высота: 544 пикс.
Соотношение сторон: 2,35:1
Частота кадров: 24,000 кадр/сек
Цветовое пространство: YUV
Подвыборка цветности: 4:2:0
Битовая глубина: 8 бит
Тип развёртки: Прогрессивная
Бит/(Пиксели*Кадры): 0.279
Размер потока: 3,20 Гбайт (68%)
Библиотека кодирования: x264 core 114 r1900 60ef1f8
Настройки программы: cabac=1 / ref=5 / deblock=1:0:0 / analyse=0x3:0x113 / me=umh / subme=7 / psy=1 / psy_rd=1.00:0.15 / mixed_ref=1 / me_range=16 / chroma_me=1 / trellis=1 / 8x8dct=1 / cqm=0 / deadzone=21,11 / fast_pskip=0 / chroma_qp_offset=-3 / threads=18 / sliced_threads=0 / nr=0 / decimate=1 / interlaced=0 / constrained_intra=0 / bframes=3 / b_pyramid=2 / b_adapt=1 / b_bias=0 / direct=1 / weightb=1 / open_gop=0 / weightp=2 / keyint=250 / keyint_min=24 / scenecut=40 / intra_refresh=0 / rc_lookahead=40 / rc=2pass / mbtree=1 / bitrate=4665 / ratetol=1.0 / qcomp=0.60 / qpmin=0 / qpmax=69 / qpstep=4 / cplxblur=20.0 / qblur=0.5 / ip_ratio=1.40 / aq=1:1.00
Язык: English

Аудио #1
Идентификатор: 2
Формат: AC-3
Формат/Информация: Audio Coding 3
Расширение режима: CM (complete main)
Идентификатор кодека: A_AC3
Продолжительность: 1 ч. 41 м.
Вид битрейта: Постоянный
Битрейт: 448 Кбит/сек
Канал(ы): 6 канала(ов)
Расположение каналов: Front: L C R, Side: L R, LFE
Частота: 48,0 КГц
Битовая глубина: 16 бит
Метод сжатия: С потерями
Размер потока: 324 Мбайт (7%)
Язык: Russian

Аудио #2
Идентификатор: 3
Формат: DTS
Формат/Информация: Digital Theater Systems
Идентификатор кодека: A_DTS
Продолжительность: 1 ч. 41 м.
Вид битрейта: Постоянный
Битрейт: 1510 Кбит/сек
Канал(ы): 6 канала(ов)
Расположение каналов: Front: L C R, Side: L R, LFE
Частота: 48,0 КГц
Битовая глубина: 24 бит
Метод сжатия: С потерями
Задержка видео: 11 мс.
Размер потока: 1,07 Гбайт (23%)
Язык: English

Текст
Идентификатор: 4
Формат: UTF-8
Идентификатор кодека: S_TEXT/UTF8
Идентификатор кодека/Информация: UTF-8 Plain Text
Язык: English

Меню
00:00:00.000: en:00:00:00.000
00:07:57.333: en:00:07:57.333
00:16:35.083: en:00:16:35.083
00:25:03.208: en:00:25:03.208
00:35:28.875: en:00:35:28.875
00:41:56.417: en:00:41:56.417
00:49:38.500: en:00:49:38.500
00:56:59.125: en:00:56:59.125
01:06:27.458: en:01:06:27.458
01:13:45.042: en:01:13:45.042
01:25:56.958: en:01:25:56.958
01:32:50.750: en:01:32:50.750
01:41:02.792: en:01:41:02.792











реклама партнёра


Вернуться к началу
 Профиль Отправить личное сообщение  
 
   Похожие торренты   Автор   Торрент   Размер 
В этой теме нет новых непрочитанных сообщений. Трое из Простоквашино. Сборник мультфильмов (Владимир Попов) [1978, мультфильм, семейный, BDRip, 1080p] / Мультфильмы (HD/BD Video)

marya111

33 | 2

2.62 ГБ

В этой теме нет новых непрочитанных сообщений. Артур и минипуты: трилогия / Arthur et les Minimoys: Trilogy (2006, 2009, 2010) BDRip [1080p]

marya111

0 | 3

32.1 ГБ

В этой теме нет новых непрочитанных сообщений. Дом / Home (Тим Джонсон) [мультфильм, фантастика, фэнтези, комедия, приключения, семейный, 2015] BDRip 1080p, Dub+Sub [3D-Video | Лицензия]

Dracon

355 | 14

9.53 ГБ

В этой теме нет новых непрочитанных сообщений. Семейка монстров / The Boxtroll [мультфильм, фэнтези, комедия, приключения, семейный, 2014] BDRip 1080p, Dub [3D-Video | iTunes]

Dracon

29 | 6

8.33 ГБ

В этой теме нет новых непрочитанных сообщений. Дом / Home (Тим Джонсон) [мультфильм, фантастика, фэнтези, комедия, приключения, семейный, 2015] BDRip 1080p, Dub+Sub [3D-Video | Лицензия]

Dracon

1019 | 133

8.84 ГБ

В этой теме нет новых непрочитанных сообщений. Аисты / Storks ( Мультфильм, Фэнтези, Комедия, Приключения, Семейный, 2016) BDRip 1080p от Ash61 | 3D-Video | halfOU | iTunes

marya111

129 | 91

9.19 ГБ

В этой теме нет новых непрочитанных сообщений. Меч короля Артура / King Arthur: Legend of the Sword [Фэнтези, Боевик, Драма, Приключения, 2017] BDRip 1080p, Dub [3D-Video] [Лицензия]

salma3

390 | 280

15.82 ГБ


Начать новую тему Ответить на тему  [ 1 сообщение ] 




Для Мосгорсуда, Роскомнадзора и рекламодателей:: mosgorsud-torrent[собачка]yandex.ru