Торрент файл
скачать торрент магнет ссылка Добавлен: 10 апр 2011, 22:18
Размер: 4.79 ГБ
Сидеров: 33
Личеров: 9
Автор

СообщениеДобавлено: 10 апр 2011, 22:18 

Не в сети
Супермодератор
Аватара пользователя
Дата регистрации:
22 май 2010, 11:03
Возраст: 31
Спасибо: 7513 / 13
Сообщения: 49940
Мегамозг / Megamind



Перевод: Профессиональный (двухголосый)
Субтитры: Отсутствуют
Формат: BDRip, MKV, AVC, AC3
Страна: США
Режиссер: Том МакГрат
Жанр: Комедия, семейный, мультфильм
Продолжительность: 01:35:35
Год выпуска: 2010
Роли озвучивали: Уилл Феррелл, Брэд Питт, Тина Фей, Джона Хилл, Дэвид Кросс, Джастин Теру, Бен Стиллер, Джессика Шульте, Том МакГрат, Эмили Нордвинд

Описание: Мегамозг — самый гениальный и самый неудачливый злодей в мире. Вот уже много лет он пытается покорить Метро-Сити самыми разнообразными способами. Но каждая такая попытка кончается провалом по вине супергероя по имени Метро-Мэн. Но злодей убивает супергероя, и внезапно Мегамозг лишается цели в жизни. Суперзлодей без супергероя. Единственный выход — создать нового супергероя, которого он называет Титаном. Но Титан решает, что быть злодеем куда интереснее. Вот только ему не хочется править миром, он желает его уничтожить. Мегамозгу предстоит непростой выбор. Сможет ли злой гений стать героем — спасителем человечества.

Рейтинг на IMDB: 7.3/10
Рейтинг на КиноПоиске: 7.917/10
Рейтинг MPAA: PG

Видео: 1920x816p (2,40:1), 23,976 fps, AVC MPEG-4 (x264), , ~5895 kbps avg, 0.157 bit/pixel
Аудио #1: Русский: 48 kHz, AC3 Dolby Digital, 3/2 (L,C,R,l,r) + LFE ch, ~640 kbps [[Профессиональный (многоголосый, закадровый), BBC Saint-Petersburg]
Аудио #2: Английский: 48 kHz, AC3 Dolby Digital, 3/2 (L,C,R,l,r) + LFE ch, ~640 kbps [[Профессиональный (многоголосый, закадровый), Оригинал]









Формат: Matroska
Размер файла: 4,79 Гбайт
Продолжительность: 1 ч. 35 м.
Общий поток: 7175 Кбит/сек
Дата кодирования: UTC 2011-02-16 12:15:34
Программа кодирования: mkvmerge v3.4.0 ('Rapunzel') built on May 15 2010 09:38:20
Библиотека кодирования: libebml v0.8.0 + libmatroska v0.9.0

Видео
Идентификатор: 1
Формат: AVC
Формат/Информация: Advanced Video Codec
Профиль формата:
Параметр CABAC формата: Да
Параметр ReFrames формата: 5 кадры
Идентификатор кодека: V_MPEG4/ISO/AVC
Продолжительность: 1 ч. 35 м.
Битрейт: 5895 Кбит/сек
Ширина: 1920 пикс.
Высота: 816 пикс.
Соотношение сторон: 2,35:1
Частота кадров: 23,976 кадр/сек
Цветовое пространство: YUV
Подвыборка цветности: 4:2:0
Битовая глубина: 8 бит
Тип развёртки: Прогрессивная
Бит/(Пиксели*Кадры): 0.157
Размер потока: 3,84 Гбайт (80%)
Библиотека кодирования: x264 core 112 r1867 22bfd31
Настройки программы: cabac=1 / ref=5 / deblock=1:0:0 / analyse=0x3:0x133 / me=umh / subme=8 / psy=1 / psy_rd=1.00:0.00 / mixed_ref=1 / me_range=16 / chroma_me=1 / trellis=1 / 8x8dct=1 / cqm=0 / deadzone=21,11 / fast_pskip=1 / chroma_qp_offset=-2 / threads=24 / sliced_threads=0 / nr=0 / decimate=1 / interlaced=0 / constrained_intra=0 / bframes=3 / b_pyramid=2 / b_adapt=1 / b_bias=0 / direct=1 / weightb=1 / open_gop=0 / weightp=1 / keyint=250 / keyint_min=23 / scenecut=40 / intra_refresh=0 / rc=2pass / mbtree=0 / bitrate=5895 / ratetol=1.0 / qcomp=0.60 / qpmin=0 / qpmax=51 / qpstep=4 / cplxblur=20.0 / qblur=0.5 / ip_ratio=1.40 / pb_ratio=1.30 / aq=1:1.00
Язык: English

Аудио #1
Идентификатор: 2
Формат: AC-3
Формат/Информация: Audio Coding 3
Расширение режима: CM (complete main)
Идентификатор кодека: A_AC3
Продолжительность: 1 ч. 35 м.
Вид битрейта: Постоянный
Битрейт: 640 Кбит/сек
Канал(ы): 6 канала(ов)
Расположение каналов: Front: L C R, Side: L R, LFE
Частота: 48,0 КГц
Битовая глубина: 16 бит
Метод сжатия: С потерями
Размер потока: 438 Мбайт (9%)
Заголовок: Russian @ DD 5.1 @ 640 kbps
Язык: Russian

Аудио #2
Идентификатор: 3
Формат: AC-3
Формат/Информация: Audio Coding 3
Расширение режима: CM (complete main)
Идентификатор кодека: A_AC3
Продолжительность: 1 ч. 35 м.
Вид битрейта: Постоянный
Битрейт: 640 Кбит/сек
Канал(ы): 6 канала(ов)
Расположение каналов: Front: L C R, Side: L R, LFE
Частота: 48,0 КГц
Битовая глубина: 16 бит
Метод сжатия: С потерями
Размер потока: 438 Мбайт (9%)
Заголовок: English @ DD 5.1 @ 640 kbps
Язык: English




реклама партнёра


Вернуться к началу
 Профиль Отправить личное сообщение  
 
   Похожие торренты   Автор   Торрент   Размер 
В этой теме нет новых непрочитанных сообщений. Трое из Простоквашино. Сборник мультфильмов (Владимир Попов) [1978, мультфильм, семейный, BDRip, 1080p] / Мультфильмы (HD/BD Video)

marya111

11 | 1

2.62 ГБ

В этой теме нет новых непрочитанных сообщений. Рио 2 / Rio 2 [Мультфильм, комедия, приключения, семейный, 2014] BDRip 1080p, Dub+Sub [Лицензия | 3D-Video]

Dracon

607 | 32

7.63 ГБ

В этой теме нет новых непрочитанных сообщений. Реальная белка / The Nut Job [мультфильм, комедия, приключения, семейный, 2014] BDRip 1080p, Mvo [3D Video]

Dracon

10 | 5

6.59 ГБ

В этой теме нет новых непрочитанных сообщений. Почтальон Пэт / Postman Pat: The Movie [Мультфильм, Комедия, семейный, 2014] BDRip 1080p, Dub [Лицензия | 3D-Video]

Dracon

57 | 3

4.89 ГБ

В этой теме нет новых непрочитанных сообщений. Холодное сердце / Frozen [Мультфильм, фэнтези, комедия, приключения, семейный, 2013] BDRip 1080p, Dub+Sub [Лицензия | 3D-Video]

Dracon

436 | 24

6.23 ГБ

В этой теме нет новых непрочитанных сообщений. Дом / Home (Тим Джонсон) [мультфильм, фантастика, фэнтези, комедия, приключения, семейный, 2015] BDRip 1080p, Dub+Sub [3D-Video | Лицензия]

Dracon

1047 | 138

8.84 ГБ

В этой теме нет новых непрочитанных сообщений. В поисках Дори / Finding Dory [мультфильм, комедия, приключения, семейный, 2016] BDRip 1080p, Dub [3D-Video] [Лицензия]

salma3

145 | 82

10.39 ГБ


Начать новую тему Ответить на тему  [ 1 сообщение ] 




Для Мосгорсуда, Роскомнадзора и рекламодателей:: mosgorsud-torrent[собачка]yandex.ru