Торрент файл
скачать торрент магнет ссылка Добавлен: 10 апр 2011, 22:09
Размер: 5.17 ГБ
Сидеров: 30
Личеров: 12
Автор

СообщениеДобавлено: 10 апр 2011, 22:09 

Не в сети
Супермодератор
Аватара пользователя
Дата регистрации:
22 май 2010, 11:03
Возраст: 32
Спасибо: 7690 / 13
Сообщения: 49871
Сезон охоты 3 / Open Season 3


Перевод: Профессиональный (полное дублирование)
Субтитры: Отсутствуют
Формат: BDRip, MKV, H.264, AC3/DTS
Страна: США
Режиссер: Коуди Камерон
Жанр: мультфильм
Продолжительность: 01:14:35
Год выпуска: 2010

В ролях: Кьяра Браво, Карли Скотт Коллинз, Шон Маллен, Мэттью Дж. Мунн, Стив Ширрипа, Дэна Снайдер, Мелисса Штурм, Мэттью В. Тейлор

Роли дублировали: Фёдор Бондарчук

Описание: Продолжение сумасшедших приключений медведя-гризли Буга и его верного друга, оленя Элиота. На этот раз Буг пускается на поиски личного счастья и попадает… в бродячий цирк, где знакомится с очаровательной русской медведицей.

Рейтинг на IMDB:5.5/10
Рейтинг на КиноПоиске:5.099
Рейтинг MPAA: PG

Видео: 1920x1080p (16:9), 23,976 fps, AVС MPEG4 ( x264) ~8083 kbps avg, 0.163 bit/pixel
Аудио #1: Русский 48 kHz, Dolby AC3, 6 ch, ~384 kbps avg [Профессиональный (полное дублирование)]
Аудио #2: Английский 48 kHz, DTS, 6 ch, ~1510 kbps avg [Оригинал]

Слоган: «Это просто цирк какой-то!»











Общее
UniqueID/String: 212609047720859281061219952507082616757 (0x9FF3035D7DF845C8935BFB578791AFB5)
Полное имя: D:\Моя\Раздача\cezon_oxotu_[tfile.ru]\Open.Season.III.2010.Bluray.1080p.DTS.x264.RUS.ENG.mkv
Формат: Matroska
Размер файла: 5,17 Гбайт
Продолжительность: 1 ч. 14 м.
Общий поток: 9926 Кбит/сек
Дата кодирования: UTC 2010-12-24 20:58:10
Программа кодирования: mkvmerge v4.4.0 ('Die Wiederkehr') сборка от Oct 31 2010 21:52:48
Библиотека кодирования: libebml v1.0.0 + libmatroska v1.0.0

Видео
Идентификатор: 1
Формат: AVC
Формат/Информация: Advanced Video Codec
Профиль формата:
Параметр CABAC формата: Да
Параметр ReFrames формата: 4 кадры
Идентификатор кодека: V_MPEG4/ISO/AVC
Продолжительность: 1 ч. 14 м.
Битрейт: 8083 Кбит/сек
Ширина: 1920 пикс.
Высота: 1080 пикс.
Соотношение сторон: 16:9
Частота кадров: 23,976 кадр/сек
Цветовое пространство: YUV
Подвыборка цветности: 4:2:0
Битовая глубина: 8 бит
Тип развёртки: Прогрессивная
Бит/(Пиксели*Кадры): 0.163
Размер потока: 4,08 Гбайт (79%)
Заголовок: Open.Season.3.2011
Библиотека кодирования: x264 core 107 r1766 f9f0035
Настройки программы: cabac=1 / ref=4 / deblock=1:-2:-2 / analyse=0x3:0x113 / me=umh / subme=10 / psy=1 / psy_rd=1.00:0.00 / mixed_ref=1 / me_range=48 / chroma_me=1 / trellis=2 / 8x8dct=1 / cqm=2 / deadzone=21,11 / fast_pskip=0 / chroma_qp_offset=-1 / threads=12 / sliced_threads=0 / nr=0 / decimate=1 / interlaced=0 / constrained_intra=0 / bframes=6 / b_pyramid=2 / b_adapt=2 / b_bias=0 / direct=3 / weightb=1 / open_gop=0 / weightp=2 / keyint=250 / keyint_min=23 / scenecut=40 / intra_refresh=0 / rc_lookahead=40 / rc=2pass / mbtree=0 / bitrate=8083 / ratetol=1.0 / qcomp=0.70 / qpmin=10 / qpmax=51 / qpstep=4 / cplxblur=20.0 / qblur=0.5 / vbv_maxrate=45000 / vbv_bufsize=40000 / ip_ratio=1.40 / pb_ratio=1.30 / aq=1:0.80 / nal_hrd=none
Язык: English

Аудио #1
Идентификатор: 2
Формат: AC-3
Формат/Информация: Audio Coding 3
Расширение режима: CM (complete main)
Идентификатор кодека: A_AC3
Продолжительность: 1 ч. 14 м.
Вид битрейта: Постоянный
Битрейт: 384 Кбит/сек
Канал(ы): 6 канала(ов)
Расположение каналов: Front: L C R, Side: L R, LFE
Частота: 48,0 КГц
Битовая глубина: 16 бит
Метод сжатия: С потерями
Размер потока: 205 Мбайт (4%)
Заголовок: Dub
Язык: Russian

Аудио #2
Идентификатор: 3
Формат: DTS
Формат/Информация: Digital Theater Systems
Идентификатор кодека: A_DTS
Продолжительность: 1 ч. 14 м.
Вид битрейта: Постоянный
Битрейт: 1510 Кбит/сек
Канал(ы): 6 канала(ов)
Расположение каналов: Front: L C R, Side: L R, LFE
Частота: 48,0 КГц
Битовая глубина: 24 бит
Метод сжатия: С потерями
Размер потока: 806 Мбайт (15%)
Заголовок: DTS-CORE 1536K
Язык: English




реклама партнёра


Вернуться к началу
 Профиль Отправить личное сообщение  
 
   Похожие торренты   Автор   Торрент   Размер 
В этой теме нет новых непрочитанных сообщений. Сезон охоты 3 / Open Season 3 [мультфильм, комедия, приключения, 2010] BDRip 1080p, Dub

salma3

16 | 14

4.37 ГБ

В этой теме нет новых непрочитанных сообщений. Сезон охоты / Open Season [мультфильм, комедия, приключения, 2006] BDRip 1080p, Dub

salma3

26 | 17

4.37 ГБ

В этой теме нет новых непрочитанных сообщений. Сезон охоты 2 / Open Season 2 [мультфильм, комедия, приключения, 2008] BDRip 1080p, Dub

salma3

18 | 14

4.37 ГБ

В этой теме нет новых непрочитанных сообщений. Сезон охоты 4: Страшно глупо / Open Season: Scared Silly [мультфильм, 2015] BDRip 1080p, Mvo [чистый звук]

salma3

99 | 7

4.6 ГБ

В этой теме нет новых непрочитанных сообщений. Сезон охоты 4: Страшно глупо / Open Season: Scared Silly [2015, Мультфильм, BDRip]

marya111

115 | 5

1.42 ГБ

В этой теме нет новых непрочитанных сообщений. Сезон охоты 4: Страшно глупо / Open Season: Scared Silly [2015, Мультфильм, BDRip (720p)]

marya111

5 | 0

4.44 ГБ

В этой теме нет новых непрочитанных сообщений. Сезон охоты: Байки из леса / Open Season: Scared Silly [мультфильм, комедия, приключения, семейный, 2016] Blu-ray 1080p, 2Dub

salma3

19 | 7

22.04 ГБ


Начать новую тему Ответить на тему  [ 1 сообщение ] 




Для Мосгорсуда, Роскомнадзора и рекламодателей:: mosgorsud-torrent[собачка]yandex.ru