Торрент файл
скачать торрент магнет ссылка Добавлен: 10 апр 2011, 22:09
Размер: 9.8 ГБ
Сидеров: 4
Личеров: 11
Автор

СообщениеДобавлено: 10 апр 2011, 22:09 

Не в сети
Супермодератор
Аватара пользователя
Дата регистрации:
22 май 2010, 11:03
Возраст: 31
Спасибо: 7509 / 13
Сообщения: 49940
Артур и минипуты / Arthur et les Minimoys



Перевод: Профессиональный (полное дублирование)
Субтитры: Английские, французские
Формат: BDRip, MKV, H.264, DTS
Страна: Франция
Режиссер: Люк Бессон
Жанр: Мультфильм, фэнтези, приключения, семейный
Продолжительность: 01:43:42
Год выпуска: 2006

В ролях: Фредди Хаймор, Миа Фэрроу, Рон Кроуфорд, Пенни Бальфур, Даг Рэнд, Адам ЛеФевр, Жан Бежот Нжамба, Сауль Джефкотт, Ли ДеЛонг, Кристиан Эриксон

Описание: Десятилетний Артур ради спасения дома своей бабушки должен проникнуть в удивительный параллельный мир крохотных существ – минипутов. Дед Артура, великий путешественник, таинственно исчезнувший несколько лет назад, знал, как попасть туда. Артуру удается разгадать загадку перехода, и он оказывается на пороге волшебных приключений.

Рейтинг IMDB: 6.0/10

Видео: 1920x816p (16:9), 24 fps, AVC MPEG4 (x264), ~9.0 Mbps avg
Аудио#1: Русский 48 kHz, DTS, 6 ch (L,C,R,l,r) + LFE ch, ~1510 kbps avg [Профессиональный (полное дублирование)]
Аудио#2: Английский 48 kHz, DTS, 6 ch (L,C,R,l,r) + LFE ch, ~1510 kbps avg [Профессиональный (полное дублирование)]
Аудио#3: Французский 48 kHz, DTS, 6 ch (L,C,R,l,r) + LFE ch, ~1510 kbps avg [Оригинал]







General
Format: Matroska
File size: 9.80 GiB
Duration: 1h 43mn
Overall bit rate: 13.5 Mbps
Encoded date: UTC 2007-11-26 20:18:57
Writing application: mkvmerge v2.0.2 ('You're My Flame') built on Aug 15 2007 20:05:20
Writing library: libebml v0.7.7 + libmatroska v0.8.1

Video
ID: 1
Format: AVC
Format/Info: Advanced Video Codec
Format profile:
Format settings, CABAC: Yes
Format settings, ReFrames: 11 frames
Codec ID: V_MPEG4/ISO/AVC
Duration: 1h 43mn
Bit rate: 9 000 Kbps
Width: 1 920 pixels
Height: 816 pixels
Display aspect ratio: 2.35:1
Frame rate: 24.000 fps
Color space: YUV
Chroma subsampling: 4:2:0
Bit depth: 8 bits
Scan type: Progressive
Bits/(Pixel*Frame): 0.239
Stream size: 6.32 GiB (64%)
Title: Arthur et les Minimoys
Writing library: x264 core 57 svn-699
Encoding settings: cabac=1 / ref=8 / deblock=1:-3:-1 / analyse=0x3:0x112 / me=umh / subme=7 / brdo=1 / mixed_ref=1 / me_range=32 / chroma_me=1 / trellis=0 / 8x8dct=1 / cqm=2 / deadzone=21,11 / chroma_qp_offset=0 / threads=6 / nr=0 / decimate=0 / mbaff=0 / bframes=3 / b_pyramid=1 / b_adapt=1 / b_bias=0 / direct=1 / wpredb=1 / bime=1 / keyint=250 / keyint_min=25 / scenecut=40(pre) / rc=2pass / bitrate=9000 / ratetol=1.0 / rceq='blurCplx^(1-qComp)' / qcomp=0.60 / qpmin=10 / qpmax=51 / qpstep=4 / cplxblur=20.0 / qblur=0.5 / ip_ratio=1.40 / pb_ratio=1.30
Language: French

Audio #1
ID: 2
Format: DTS
Format/Info: Digital Theater Systems
Codec ID: A_DTS
Duration: 1h 43mn
Bit rate mode: Constant
Bit rate: 1 510 Kbps
Channel(s): 6 channels
Channel positions: Front: L C R, Side: L R, LFE
Sampling rate: 48.0 KHz
Bit depth: 24 bits
Compression mode: Lossy
Stream size: 1.09 GiB (11%)
Title: DTS 5.1, 1536 kbps
Language: Russian

Audio #2
ID: 3
Format: DTS
Format/Info: Digital Theater Systems
Codec ID: A_DTS
Duration: 1h 43mn
Bit rate mode: Constant
Bit rate: 1 510 Kbps
Channel(s): 6 channels
Channel positions: Front: L C R, Side: L R, LFE
Sampling rate: 48.0 KHz
Bit depth: 24 bits
Compression mode: Lossy
Stream size: 1.09 GiB (11%)
Title: DTS 5.1, 1536 kbps
Language: English

Audio #3
ID: 4
Format: DTS
Format/Info: Digital Theater Systems
Codec ID: A_DTS
Duration: 1h 43mn
Bit rate mode: Constant
Bit rate: 1 510 Kbps
Channel(s): 6 channels
Channel positions: Front: L C R, Side: L R, LFE
Sampling rate: 48.0 KHz
Bit depth: 24 bits
Compression mode: Lossy
Stream size: 1.09 GiB (11%)
Title: DTS 5.1, 1536 kbps
Language: French

Text #1
ID: 5
Format: ASS
Codec ID: S_TEXT/ASS
Codec ID/Info: Advanced Sub Station Alpha
Compression mode: Lossless
Language: English

Text #2
ID: 6
Format: ASS
Codec ID: S_TEXT/ASS
Codec ID/Info: Advanced Sub Station Alpha
Compression mode: Lossless
Language: French





реклама партнёра


Вернуться к началу
 Профиль Отправить личное сообщение  
 
   Похожие торренты   Автор   Торрент   Размер 
В этой теме нет новых непрочитанных сообщений. Артур и минипуты: трилогия / Arthur et les Minimoys: Trilogy (2006, 2009, 2010) BDRip [1080p]

marya111

0 | 3

32.1 ГБ

В этой теме нет новых непрочитанных сообщений. Дом / Home (Тим Джонсон) [мультфильм, фантастика, фэнтези, комедия, приключения, семейный, 2015] BDRip 1080p, Dub+Sub [3D-Video | Лицензия]

Dracon

1047 | 138

8.84 ГБ

В этой теме нет новых непрочитанных сообщений. Приключения мышонка / Rodencia y el Diente de la Princesa [Мультфильм, фэнтези, комедия ,2013] BDRip 1080p, Dub [3D-Video | Лицензия]

Dracon

383 | 46

3.67 ГБ

В этой теме нет новых непрочитанных сообщений. Семейка монстров / The Boxtroll [мультфильм, фэнтези, комедия, приключения, семейный, 2014] BDRip 1080p, Dub [3D-Video | iTunes]

Dracon

29 | 6

8.33 ГБ

В этой теме нет новых непрочитанных сообщений. Дом / Home (Тим Джонсон) [мультфильм, фантастика, фэнтези, комедия, приключения, семейный, 2015] BDRip 1080p, Dub+Sub [3D-Video | Лицензия]

Dracon

362 | 14

9.53 ГБ

В этой теме нет новых непрочитанных сообщений. Три богатыря: Ход конем (Константин Феоктистов) [мультфильм, комедия, приключения, фэнтези, 2014] BDRip 1080p [Лицензия | 3D-Video]

Dracon

232 | 6

3.26 ГБ

В этой теме нет новых непрочитанных сообщений. Холодное сердце / Frozen [Мультфильм, фэнтези, комедия, приключения, семейный, 2013] BDRip 1080p, Dub+Sub [Лицензия | 3D-Video]

Dracon

436 | 24

6.23 ГБ


Начать новую тему Ответить на тему  [ 1 сообщение ] 




Для Мосгорсуда, Роскомнадзора и рекламодателей:: mosgorsud-torrent[собачка]yandex.ru