Торрент файл
скачать торрент магнет ссылка Добавлен: 10 апр 2011, 22:07
Размер: 2.43 ГБ
Сидеров: 8
Личеров: 8
Автор

СообщениеДобавлено: 10 апр 2011, 22:07 

Не в сети
Супермодератор
Аватара пользователя
Дата регистрации:
22 май 2010, 11:03
Возраст: 32
Спасибо: 7690 / 13
Сообщения: 49871
Супермен/Бэтмен: Апокалипсис / Superman/Batman: Apocalypse



Перевод: Любительский (многоголосый, закадровый)
Cубтитры: отсутствуют
Формат: BDRip, MKV, H.264, AC3
Страна: США
Режиссер: Лоурен Монтгомери
Жанр: мультфильм
Продолжительность: 01:18:18
Год выпуска: 2010
В ролях: Тим Дейли, Кевин Конрой, Саммер Глау, Сьюзэн Эйзенберг, Эдвард Эснер, Джулианна Гроссман, Рэйчел Куинтанс, Салли Саффиоти
Описание: И снова Супермен и Бетмен борются против зла. На этот раз этим злом оказался Апокалипсис...

Рейтинг на Кинопоиск.RU:8.647
Рейтинг на IMDB:7.1/10
Рейтинг MPAA:PG-13

Видео: 1280x720p (16:9), 23.976 fps, V_MPEG4 (x264), , ~3365 Kbps avg, 0.152 bit/pixel
Аудио#1: Русский: 48kHz, AC3, 6 ch, ~448 Kbps [Любительский (многоголосый, закадровый)]
Аудио#2: Английский: 48kHz, AC3, 6 ch, ~640 Kbps [Оригинал]








Complete name: Apocalypse_[tfile.ru].mkv
Format: Matroska
File size: 2.43 GiB
Duration: 1h 18mn
Overall bit rate: 4 456 Kbps
Movie name: Superman/Batman Apocalypse
Encoded date: UTC 2010-10-03 12:09:12
Writing application: mkvmerge v2.1.0 ('Another Place To Fall') built on Aug 19 2007 13:40:07
Writing library: libebml v0.7.7 + libmatroska v0.8.1

Video
ID: 1
Format: AVC
Format/Info: Advanced Video Codec
Format profile:
Format settings, CABAC: Yes
Format settings, ReFrames: 5 frames
Muxing mode: Container profile=Unknown@4.1
Codec ID: V_MPEG4/ISO/AVC
Duration: 1h 18mn
Bit rate: 3 365 Kbps
Width: 1 280 pixels
Height: 720 pixels
Display aspect ratio: 16:9
Frame rate: 23.976 fps
Color space: YUV
Chroma subsampling: 4:2:0
Bit depth: 8 bits
Scan type: Progressive
Bits/(Pixel*Frame): 0.152
Stream size: 1.79 GiB (74%)
Writing library: x264 core 104 r1713 c276662
Encoding settings: cabac=1 / ref=5 / deblock=1:0:0 / analyse=0x3:0x113 / me=umh / subme=7 / psy=1 / psy_rd=1.00:0.00 / mixed_ref=1 / me_range=16 / chroma_me=1 / trellis=1 / 8x8dct=1 / cqm=0 / deadzone=21,11 / fast_pskip=1 / chroma_qp_offset=-2 / threads=6 / sliced_threads=0 / nr=0 / decimate=1 / interlaced=0 / constrained_intra=0 / bframes=3 / b_pyramid=2 / b_adapt=1 / b_bias=0 / direct=1 / weightb=1 / open_gop=0 / weightp=2 / keyint=250 / keyint_min=23 / scenecut=40 / intra_refresh=0 / rc_lookahead=40 / rc=2pass / mbtree=1 / bitrate=3365 / ratetol=1.0 / qcomp=0.60 / qpmin=10 / qpmax=51 / qpstep=4 / cplxblur=20.0 / qblur=0.5 / ip_ratio=1.40 / aq=1:1.00
Language: English

Audio #1
ID: 2
Format: AC-3
Format/Info: Audio Coding 3
Mode extension: CM (complete main)
Codec ID: A_AC3
Duration: 1h 18mn
Bit rate mode: Constant
Bit rate: 448 Kbps
Channel(s): 6 channels
Channel positions: Front: L C R, Side: L R, LFE
Sampling rate: 48.0 KHz
Bit depth: 16 bits
Stream size: 251 MiB (10%)
Title: SkyeFilmTV
Language: Russian

Audio #2
ID: 3
Format: AC-3
Format/Info: Audio Coding 3
Mode extension: CM (complete main)
Codec ID: A_AC3
Duration: 1h 18mn
Bit rate mode: Constant
Bit rate: 640 Kbps
Channel(s): 6 channels
Channel positions: Front: L C R, Side: L R, LFE
Sampling rate: 48.0 KHz
Bit depth: 16 bits
Stream size: 358 MiB (14%)
Title: Eng
Language: English




реклама партнёра


Вернуться к началу
 Профиль Отправить личное сообщение  
 
   Похожие торренты   Автор   Торрент   Размер 
В этой теме нет новых непрочитанных сообщений. Бэтмен против Супермена: На заре справедливости / Batman v Superman: Dawn of Justice (2016) BDRip 1080p от HELLYWOOD | Расширенная версия | Лицензия, P, A

marya111

108 | 25

20.91 ГБ

В этой теме нет новых непрочитанных сообщений. Бэтмен против Супермена: На заре справедливости / Batman v Superman: Dawn of Justice [фэнтези, боевик, приключения, 2016] BDRip, Avo [Гаврилов] [Расширенная версия]

salma3

48 | 23

2.9 ГБ

В этой теме нет новых непрочитанных сообщений. Бэтмен / The LEGO Batman Movie [Мультфильм, фэнтези, боевик, 2017] BDRip 720p, Dub [Лицензия]

salma3

294 | 31

3.88 ГБ

В этой теме нет новых непрочитанных сообщений. Лего Фильм: Бэтмен / The LEGO Batman Movie [Мультфильм, фэнтези, боевик, 2017] Blu-Ray CEE 1080p, Dub [3D-Video] [Лицензия]

salma3

25 | 33

35.05 ГБ

В этой теме нет новых непрочитанных сообщений. Бэтмен против Робина / Batman vs. Robin (Джей Олива) [Мультфильм, боевик, приключения, 2015] BDRip 720p, mvo [Чистый звук]

Dracon

43 | 2

2.26 ГБ

В этой теме нет новых непрочитанных сообщений. Безграничный Бэтмен: Хаос / Batman Unlimited: Monster Mayhem (Батч Лукич) [Мультфильм, боевик, приключения, 2015] BDRip 720p, Mvo [iTunes]

Dracon

48 | 3

2.86 ГБ

В этой теме нет новых непрочитанных сообщений. Бэтмен против Супермена: На заре справедливости / Batman v Superman: Dawn of Justice [фантастика, боевик, приключения, 2016] DVD5, Dub+Sub

salma3

28 | 14

4.37 ГБ


Начать новую тему Ответить на тему  [ 1 сообщение ] 




Для Мосгорсуда, Роскомнадзора и рекламодателей:: mosgorsud-torrent[собачка]yandex.ru