Торрент файл
скачать торрент магнет ссылка Добавлен: 10 апр 2011, 22:07
Размер: 4.65 ГБ
Сидеров: 8
Личеров: 7
Автор

СообщениеДобавлено: 10 апр 2011, 22:07 

Не в сети
Супермодератор
Аватара пользователя
Дата регистрации:
22 май 2010, 11:03
Возраст: 31
Спасибо: 7509 / 13
Сообщения: 49940
История игрушек: Большой побег / Toy Story 3



Перевод: Профессиональный (полное дублирование)
Субтитры: Русские (форсированные), русские (полные), английские
Формат: BDRip, MKV, H.264, AC3
Страна: США
Режиссер: Ли Анкрич
Жанр: фэнтези, комедия, приключения, семейный, мультфильм
Продолжительность: 01:43:03
Год выпуска: 2010

В ролях: Том Хэнкс, Тим Аллен, Джоан Кьюсак, Нед Битти, Дон Риклз, Майкл Китон, Уоллес Шоун, Джон Ратценбергер, Эстелль Харрис, Джон Моррис

Описание: Энди почти 18 лет, ему остаётся 3 дня до отправки в колледж, в то время как его игрушки, в том числе Вуди и Базз Лайтер, гадают о своём будущем. Куда забросит их судьба? На чердак, на свалку или, может быть, в детский сад «Солнышко»? События развиваются в самом неожиданном направлении, и приключения полюбившихся героев продолжаются!

Рейтинг на Кинопоиск.RU:8.493
Рейтинг на IMDB:8.9/10
Рейтинг MPAA:G

Видео: 1280x720p (16:9), 23.976 fps, MPEG4 Video (H264), ~ 4591 кбит/с, 0.208 bit/pixel
Аудио#1:Русский 48 kHz, (AC3), 6ch, ~ 384 Кбит/сек [Профессиональный (полное дублирование)]
Аудио#2:Английский 48 kHz, (DTS), 6ch, ~ 1510 Кбит/сек [Оригинал]








Complete name : Istorija_igrushek_3_Bolshoi_pobeg_[tfile.ru]
Format : Matroska
File size : 4.65 GiB
Duration : 1h 43mn
Overall bit rate : 6 457 Kbps
Writing library : libebml v0.8.0 + libmatroska v0.9.0

Video #1
ID : 1
Format : AVC
Format/Info : Advanced Video Codec
Format profile :
Format settings, CABAC : Yes
Format settings, ReFrames : 4 frames
Muxing mode : Container profile=Unknown@4.1
Codec ID : V_MPEG4/ISO/AVC
Duration : 1h 43mn
Bit rate : 4 591 Kbps
Width : 1 280 pixels
Height : 720 pixels
Display aspect ratio : 16:9
Frame rate : 23.976 fps
Color space : YUV
Chroma subsampling : 4:2:0
Bit depth : 8 bits
Scan type : Progressive
Bits/(Pixel*Frame) : 0.208
Stream size : 3.19 GiB (69%)
Writing library : x264 core 107 r1745 4785e8e
Encoding settings : cabac=1 / ref=5 / deblock=1:0:0 / analyse=0x3:0x133 / me=umh / subme=7 / psy=1 / psy_rd=1.00:0.20 / mixed_ref=1 / me_range=16 / chroma_me=1 / trellis=1 / 8x8dct=1 / cqm=0 / deadzone=21,11 / fast_pskip=1 / chroma_qp_offset=-6 / threads=12 / sliced_threads=0 / nr=0 / decimate=1 / interlaced=0 / constrained_intra=0 / bframes=3 / b_pyramid=1 / b_adapt=1 / b_bias=0 / direct=3 / weightb=1 / open_gop=0 / weightp=0 / keyint=250 / keyint_min=23 / scenecut=40 / intra_refresh=0 / rc_lookahead=40 / rc=2pass / mbtree=1 / bitrate=4591 / ratetol=1.0 / qcomp=0.60 / qpmin=10 / qpmax=51 / qpstep=4 / cplxblur=20.0 / qblur=0.5 / ip_ratio=1.40 / aq=1:1.00

Audio #1
ID : 1
Format : AC-3
Format/Info : Audio Coding 3
Mode extension : CM (complete main)
Codec ID : A_AC3
Duration : 1h 43mn
Bit rate mode : Constant
Bit rate : 384 Kbps
Channel(s) : 6 channels
Channel positions : Front: L C R, Side: L R, LFE
Sampling rate : 48.0 KHz
Bit depth : 16 bits
Stream size : 283 MiB (6%)
Language : Russian

Audio #2
ID : 2
Format : DTS
Format/Info : Digital Theater Systems
Format profile : ES
Codec ID : A_DTS
Duration : 1h 43mn
Bit rate mode : Constant
Bit rate : 1 510 Kbps
Channel(s) : 6 channels
Channel positions : Front: L C R, Side: L R, LFE
Sampling rate : 48.0 KHz
Bit depth : 24 bits
Stream size : 1.09 GiB (23%)
Language : English

Text #3
ID : 3
Format : UTF-8
Codec ID : S_TEXT/UTF8
Codec ID/Info : UTF-8 Plain Text
Title : Forced
Language : Russian

Text #4
ID : 4
Format : UTF-8
Codec ID : S_TEXT/UTF8
Codec ID/Info : UTF-8 Plain Text
Title : Full
Language : Russian

Text #5
ID : 5
Format : UTF-8
Codec ID : S_TEXT/UTF8
Codec ID/Info : UTF-8 Plain Text
Language : English




реклама партнёра


Вернуться к началу
 Профиль Отправить личное сообщение  
 
   Похожие торренты   Автор   Торрент   Размер 
В этой теме нет новых непрочитанных сообщений. Мы вернулись! История динозавра / We're Back! A Dinosaur's Story [мультфильм, фэнтези, приключения, семейный, 1993] BDRip 720p, Mvo

salma3

21 | 10

7.62 ГБ

В этой теме нет новых непрочитанных сообщений. Трое из Простоквашино. Сборник мультфильмов (Владимир Попов) [1978, мультфильм, семейный, BDRip, 1080p] / Мультфильмы (HD/BD Video)

marya111

11 | 1

2.62 ГБ

В этой теме нет новых непрочитанных сообщений. История Игрушек: То, что забыто / Toy Story That Time Forgot [Короткометражный анимационный фильм, 2014] HDTVRip, avo

Dracon

549 | 6

325.33 МБ

В этой теме нет новых непрочитанных сообщений. Полицейская история / Flic Story [триллер, драма, криминал, 1975] BDRip 720p, Mvo+Dvo

salma3

29 | 1

4.63 ГБ

В этой теме нет новых непрочитанных сообщений. Простая история / The Straight Story [драма, приключения, биография, 1999] BDRip 720p, Mvo+Avo+Sub

salma3

27 | 5

4.99 ГБ

В этой теме нет новых непрочитанных сообщений. Армейская история / A Soldier's Story [драма, криминал, детектив, военный, 1984] BDRip 720p, Mvo+Sub

salma3

30 | 3

5.13 ГБ

В этой теме нет новых непрочитанных сообщений. Лос-Анджелесская история / L.A. Story [комедия, мелодрама, драма, фэнтези, 1991] BDRip 720p, Mvo+2Avo+Sub

salma3

24 | 2

5.43 ГБ


Начать новую тему Ответить на тему  [ 1 сообщение ] 




Для Мосгорсуда, Роскомнадзора и рекламодателей:: mosgorsud-torrent[собачка]yandex.ru