Торрент файл
скачать торрент магнет ссылка Добавлен: 10 апр 2011, 22:06
Размер: 5.79 ГБ
Сидеров: 15
Личеров: 8
Автор

СообщениеДобавлено: 10 апр 2011, 22:06 

Не в сети
Супермодератор
Аватара пользователя
Дата регистрации:
22 май 2010, 11:03
Возраст: 31
Спасибо: 7509 / 13
Сообщения: 49940
Как приручить дракона / How to Train Your Dragon



Перевод: Профессиональный (полное дублирование)
Субтитры: Русские, русские (voronine), русские (комментарии), украинские, английские, английские (комментарии), чешские, французкие, хорватские, португальские, румынские, испанские, шведские
Формат: BDRip, MKV, H.264, AC3
Страна: США
Режиссер: Дин ДеБлуа, Крис Сандерс
Жанр: фэнтези, комедия, приключения, семейный, мультфильм
Продолжительность: 01:37:51
Год выпуска: 2010

В ролях: Джей Барушель, Джерард Батлер, Крэйг Фергюсон, Америка Феррера, Джона Хилл, Кристофер Минц-Плассе, ТиДжей Миллер, Кристен Уиг, Робин Аткин Даунс, Филип МакГрэйд

Описание: Вы узнаете историю подростка Иккинга, которому не слишком близки традиции его героического племени, много лет ведущего войну с драконами. Мир Иккинга переворачивается с ног на голову, когда он неожиданно встречает дракона Беззубика, который поможет ему и другим викингам увидеть привычный мир с совершенно другой стороны...

Рейтинг на КиноПоиск:8.540
Рейтинг на IMDB:8.2/10
Рейтинг на MPAA:PG

Видео: 1280x544p (2.35:1), 23.976 fps, MPEG4 Video (H264), ~ 5691 кбит/с, 0.341 bit/pixel
Аудио#1:Русский 48 kHz, (AC3), 6ch, ~ 640 Кбит/сек [Профессиональный (полное дублирование)]
Аудио#2:Русский 48 kHz, (AC3), 6ch, ~ 640 кбит/с [Профессиональный (двухголосый), "Кубик в кубе"]
Аудио#3:Украинский 48 kHz, (AC3), 6ch, ~ 640 кбит/с [Профессиональный (полное дублирование)]
Аудио#4:Английский 48 kHz, (AC3), 6ch, ~ 640 кбит/с [Оригинал]
Аудио#5:Английский 48 kHz, (AC3), 2ch, ~ 224 кбит/с [|Commentary|(Английский)]








Complete name : How_Ty_Train_Your_Dragon_[tfile.ru]
Format : Matroska
File size : 5.79 GiB
Duration : 1h 37mn
Overall bit rate : 8 478 Kbps
Writing library : libebml v0.8.0 + libmatroska v0.9.0

Video
ID : 1
Format : AVC
Format/Info : Advanced Video Codec
Format profile :
Format settings, CABAC : Yes
Format settings, ReFrames : 9 frames
Format settings, GOP : M=2, N=32
Muxing mode : Container profile=Unknown@4.1
Codec ID : V_MPEG4/ISO/AVC
Duration : 1h 37mn
Bit rate : 5 691 Kbps
Width : 1 280 pixels
Height : 544 pixels
Display aspect ratio : 2.35:1
Frame rate : 23.976 fps
Color space : YUV
Chroma subsampling : 4:2:0
Bit depth : 8 bits
Scan type : Progressive
Bits/(Pixel*Frame) : 0.341
Stream size : 3.78 GiB (65%)
Title : Release for RUTRACKER.ORG
Writing library : x264 core 105 r1732 2b04482
Encoding settings : cabac=1 / ref=9 / deblock=1:-3:-3 / analyse=0x3:0x133 / me=tesa / subme=10 / psy=1 / psy_rd=0.90:0.00 / mixed_ref=1 / me_range=16 / chroma_me=1 / trellis=2 / 8x8dct=1 / cqm=0 / deadzone=21,11 / fast_pskip=0 / chroma_qp_offset=-2 / threads=12 / sliced_threads=0 / nr=0 / decimate=0 / interlaced=0 / constrained_intra=0 / bframes=7 / b_pyramid=2 / b_adapt=2 / b_bias=0 / direct=3 / weightb=1 / open_gop=0 / weightp=2 / keyint=250 / keyint_min=23 / scenecut=40 / intra_refresh=0 / rc=2pass / mbtree=0 / bitrate=5691 / ratetol=1.0 / qcomp=0.60 / qpmin=10 / qpmax=51 / qpstep=4 / cplxblur=20.0 / qblur=0.5 / ip_ratio=1.40 / pb_ratio=1.30 / aq=1:0.80

Audio #1
ID : 2
Format : AC-3
Format/Info : Audio Coding 3
Mode extension : CM (complete main)
Codec ID : A_AC3
Duration : 1h 37mn
Bit rate mode : Constant
Bit rate : 640 Kbps
Channel(s) : 6 channels
Channel positions : Front: L C R, Side: L R, LFE
Sampling rate : 48.0 KHz
Stream size : 448 MiB (8%)
Title : AC3; 640 Kbps @ 5.1 ch - (Dubbing) Blu-ray CEE
Language : Russian

Audio #2
ID : 3
Format : AC-3
Format/Info : Audio Coding 3
Mode extension : CM (complete main)
Codec ID : A_AC3
Duration : 1h 37mn
Bit rate mode : Constant
Bit rate : 640 Kbps
Channel(s) : 6 channels
Channel positions : Front: L C R, Side: L R, LFE
Sampling rate : 48.0 KHz
Stream size : 448 MiB (8%)
Title : AC3; 640 Kbps @ 5.1 ch - (Проф. Двухголосый) Студия "Кубик в кубе" (NEW)
Language : Russian

Audio #3
ID : 4
Format : AC-3
Format/Info : Audio Coding 3
Mode extension : CM (complete main)
Codec ID : A_AC3
Duration : 1h 37mn
Bit rate mode : Constant
Bit rate : 640 Kbps
Channel(s) : 6 channels
Channel positions : Front: L C R, Side: L R, LFE
Sampling rate : 48.0 KHz
Stream size : 448 MiB (8%)
Title : AC3; 640 Kbps @ 5.1 ch - (Dubbing) Blu-ray CEE
Language : Ukrainian

Audio #4
ID : 5
Format : AC-3
Format/Info : Audio Coding 3
Mode extension : CM (complete main)
Codec ID : A_AC3
Duration : 1h 37mn
Bit rate mode : Constant
Bit rate : 640 Kbps
Channel(s) : 6 channels
Channel positions : Front: L C R, Side: L R, LFE
Sampling rate : 48.0 KHz
Stream size : 448 MiB (8%)
Title : AC3; 640 Kbps @ 5.1 ch
Language : English

Audio #5
ID : 6
Format : AC-3
Format/Info : Audio Coding 3
Mode extension : CM (complete main)
Codec ID : A_AC3
Duration : 1h 37mn
Bit rate mode : Constant
Bit rate : 224 Kbps
Channel(s) : 2 channels
Channel positions : Front: L R
Sampling rate : 48.0 KHz
Stream size : 157 MiB (3%)
Title : AC3; 224 Kbps @ 2 ch - (Commentary track)
Language : English

Text #1
ID : 7
Format : UTF-8
Codec ID : S_TEXT/UTF8
Codec ID/Info : UTF-8 Plain Text
Title : Blu-ray CEE
Language : Russian

Text #2
ID : 8
Format : UTF-8
Codec ID : S_TEXT/UTF8
Codec ID/Info : UTF-8 Plain Text
Title : Авторские субтитры - Е. Воронин (voronine)
Language : Russian

Text #3
ID : 9
Format : UTF-8
Codec ID : S_TEXT/UTF8
Codec ID/Info : UTF-8 Plain Text
Title : (Commentary track)
Language : Russian

Text #4
ID : 10
Format : UTF-8
Codec ID : S_TEXT/UTF8
Codec ID/Info : UTF-8 Plain Text
Title : Blu-ray CEE
Language : Ukrainian

Text #5
ID : 11
Format : UTF-8
Codec ID : S_TEXT/UTF8
Codec ID/Info : UTF-8 Plain Text
Language : English

Text #6
ID : 12
Format : UTF-8
Codec ID : S_TEXT/UTF8
Codec ID/Info : UTF-8 Plain Text
Title : (Commentary track)
Language : English

Text #7
ID : 13
Format : UTF-8
Codec ID : S_TEXT/UTF8
Codec ID/Info : UTF-8 Plain Text
Language : Croatian

Text #8
ID : 14
Format : UTF-8
Codec ID : S_TEXT/UTF8
Codec ID/Info : UTF-8 Plain Text
Language : Czech

Text #9
ID : 15
Format : UTF-8
Codec ID : S_TEXT/UTF8
Codec ID/Info : UTF-8 Plain Text
Language : French

Text #10
ID : 16
Format : UTF-8
Codec ID : S_TEXT/UTF8
Codec ID/Info : UTF-8 Plain Text
Language : Portuguese

Text #11
ID : 17
Format : UTF-8
Codec ID : S_TEXT/UTF8
Codec ID/Info : UTF-8 Plain Text
Language : Romanian

Text #12
ID : 18
Format : UTF-8
Codec ID : S_TEXT/UTF8
Codec ID/Info : UTF-8 Plain Text
Language : Spanish

Text #13
ID : 19
Format : UTF-8
Codec ID : S_TEXT/UTF8
Codec ID/Info : UTF-8 Plain Text
Language : Swedish




реклама партнёра


Вернуться к началу
 Профиль Отправить личное сообщение  
 
   Похожие торренты   Автор   Торрент   Размер 
В этой теме нет новых непрочитанных сообщений. Как приручить дракона:Коллекция / HOW TO TRAIN YOUR DRAGON:COLLECTION (Дин ДеБлуа, Крис Сандерс,) [2010- 2014, Мультфильм, фэнтези, комедия, приключения, семейный, ВDRip-AVC] [1080p] [Dub (Лицензия)]

Враг Нароода

6 | 3

11.05 ГБ

В этой теме нет новых непрочитанных сообщений. Как приручить дракона 2 / How to Train Your Dragon 2 (Дин ДеБлуа) [мультфильм, фэнтези, комедия, приключения, семейный, 2014] BDRip 1080p, Dub+Sub [лицензия | 3D Video]

Dracon

658 | 16

7.44 ГБ

В этой теме нет новых непрочитанных сообщений. Как приручить дракона 2 / How to Train Your Dragon 2 [мультфильм, фэнтези, комедия, приключения, семейный, 2014] BDRip 720p, Dub+Sub [лицензия]

Dracon

1206 | 30

4.37 ГБ

В этой теме нет новых непрочитанных сообщений. Как приручить дракона 2 / How to Train Your Dragon 2 [мультфильм, фэнтези, комедия, приключения, семейный, 2014] Blu-Ray 1080p, Dub+Sub [лицензия | 3D Video]

Dracon

26 | 6

38.48 ГБ

В этой теме нет новых непрочитанных сообщений. Как приручить дракона 2  / How to Train Your Dragon 2 [мультфильм, фэнтези, комедия, приключения, семейный, 2014] WEB-DL 720p, Dub [iTunes]

Dracon

28 | 2

3.43 ГБ

В этой теме нет новых непрочитанных сообщений. Как приручить дракона 2 / How to Train Your Dragon 2 [мультфильм, фэнтези, комедия, приключения, семейный, 2014] BDRip 1080p, Dub+Sub [лицензия]

Dracon

342 | 10

9.68 ГБ

В этой теме нет новых непрочитанных сообщений. Как приручить дракона 2 / How to Train Your Dragon 2 [мультфильм, фэнтези, комедия, приключения, семейный, 2014] CAMRip, Dub

hobbit1021

1041 | 19

1.36 ГБ


Начать новую тему Ответить на тему  [ 1 сообщение ] 




Для Мосгорсуда, Роскомнадзора и рекламодателей:: mosgorsud-torrent[собачка]yandex.ru