Торрент файл
скачать торрент магнет ссылка Добавлен: 10 апр 2011, 22:04
Размер: 4.18 ГБ
Сидеров: 1
Личеров: 7
Автор

СообщениеДобавлено: 10 апр 2011, 22:04 

Не в сети
Супермодератор
Аватара пользователя
Дата регистрации:
22 май 2010, 11:03
Возраст: 32
Спасибо: 7690 / 13
Сообщения: 49871
Астерикс и викинги /Asterix and the Vikings



Перевод:Профессиональный (полное дублирование)
cубтитры:Отсутствуют
Формат:BDRip, MKV, AVC, DTS
Страна:Дания, Франция
Режиссер:Стефан Фьелдмарк, Джеспер Мюллер
Жанр:комедия, приключения, семейный, мультфильм
Продолжительность:01:15:05
Год выпуска:2006

В ролях:Роже Карель, Лоран Дойч, Сара Форестье, Жак Франц, Пьер Пальмад, Пьер Черния, Бернар Алан, Марк Альфос, Жуль Азем, Патрик Борг

Роли дублировали:Вячеслав Баранов, Пётр Иващенко

Описание: Астерикс и его друг Обеликс впервые в своей жизни должны встретиться с викингами. Бесстрашные воины из северной страны выкрали племянника вождя галлов, юного Задиру. Миссия чрезвычайно опасна, так как викинги слывут отчаянными и безжалостными воинами…

Рейтинг на IMDB: 5.9/10
Рейтинг на КиноПоиск.RU: 7.078

Видео:1280x688p (1,860), 25.000 fps, AVC MPEG4 (х264) , ~6 493 kbps avg, 0.295 bit/pixel
Аудио#1:Русский: 48 kHz ,DTS, 6ch,~755 kbps avg[Профессиональный (полное дублирование)]
Аудио#2:Английский: 48 kHz ,AC3, 6ch,~448 kbps avg[Оригинал]

Слоган:«Трепещите, викинги нападают!»

Общее
Уникальный идентификатор: 237435959803231741167659752620624500400 (0xB2A080A2EB1949BB87B7743EA650D6B0)
Полное имя: E:\мульты\Asteriks-i-Vikingi-2006-BDRip-720p.mkv
Формат: Matroska
Размер файла: 4,18 Гбайт
Продолжительность: 1 ч. 15 м.
Общий поток: 7969 Кбит/сек
Дата кодирования: UTC 2008-02-09 16:38:01
Программа кодирования: mkvmerge v2.1.0 ('Another Place To Fall') built on Aug 19 2007 13:40:07
Библиотека кодирования: libebml v0.7.7 + libmatroska v0.8.1

Видео
Идентификатор: 1
Формат: AVC
Формат/Информация: Advanced Video Codec
Профиль формата:
Параметр CABAC формата: Да
Параметр ReFrames формата: 5 кадры
Идентификатор кодека: V_MPEG4/ISO/AVC
Продолжительность: 1 ч. 15 м.
Битрейт: 6493 Кбит/сек
Ширина: 1280 пикс.
Высота: 688 пикс.
Соотношение сторон: 1,860
Частота кадров: 25,000 кадр/сек
Частота кадров в оригинале: 24,000 кадр/сек
Цветовое пространство: YUV
Подвыборка цветности: 4:2:0
Битовая глубина: 8 бит
Тип развёртки: Прогрессивная
Бит/(Пиксели*Кадры): 0.295
Размер потока: 3,47 Гбайт (83%)
Заголовок: 1280 x 688;~6471 (HDVClub.com)
Библиотека кодирования: x264 core 58 svn-736
Настройки программы: cabac=1 / ref=5 / deblock=1:-2:-1 / analyse=0x1:0 / me=umh / subme=7 / brdo=1 / mixed_ref=1 / me_range=16 / chroma_me=1 / trellis=1 / 8x8dct=0 / cqm=2 / deadzone=21,11 / chroma_qp_offset=0 / threads=6 / nr=0 / decimate=1 / mbaff=0 / bframes=3 / b_pyramid=1 / b_adapt=1 / b_bias=0 / direct=1 / wpredb=1 / bime=1 / keyint=250 / keyint_min=25 / scenecut=40(pre) / rc=2pass / bitrate=6493 / ratetol=1.0 / rceq='blurCplx^(1-qComp)' / qcomp=0.60 / qpmin=10 / qpmax=51 / qpstep=4 / cplxblur=20.0 / qblur=0.5 / ip_ratio=1.40 / pb_ratio=1.30
Язык: English

Аудио #1
Идентификатор: 2
Формат: DTS
Формат/Информация: Digital Theater Systems
Идентификатор кодека: A_DTS
Продолжительность: 1 ч. 15 м.
Вид битрейта: Постоянный
Битрейт: 755 Кбит/сек
Канал(ы): 6 канала(ов)
Расположение каналов: Front: L C R, Side: L R, LFE
Частота: 48,0 КГц
Битовая глубина: 24 бит
Метод сжатия: С потерями
Размер потока: 405 Мбайт (9%)
Заголовок: DTS at 768 Kbps
Язык: Russian

Аудио #2
Идентификатор: 3
Формат: AC-3
Формат/Информация: Audio Coding 3
Расширение режима: CM (complete main)
Идентификатор кодека: A_AC3
Продолжительность: 1 ч. 15 м.
Вид битрейта: Постоянный
Битрейт: 448 Кбит/сек
Канал(ы): 6 канала(ов)
Расположение каналов: Front: L C R, Side: L R, LFE
Частота: 48,0 КГц
Битовая глубина: 16 бит
Метод сжатия: С потерями
Размер потока: 241 Мбайт (6%)
Заголовок: AC3 at 448 Kbps
Язык: English





















реклама партнёра


Вернуться к началу
 Профиль Отправить личное сообщение  
 
   Похожие торренты   Автор   Торрент   Размер 
В этой теме нет новых непрочитанных сообщений. Астерикс: Земля Богов / Astérix: Le domaine des dieux / Asterix: The Mansions of the Gods (Луис Клиши, Александр Астье) [мультфильм, приключения, фэнтези, комедия, 2014] BDRip 1080p, Dub [3D-Video]

Dracon

66 | 2

4.12 ГБ

В этой теме нет новых непрочитанных сообщений. Астерикс и Клеопатра / Asterix et Cleopatre [комедия, приключения, 1968] BDRip 720p, Mvo+Sub

salma3

29 | 13

5.33 ГБ

В этой теме нет новых непрочитанных сообщений. Астерикс: Земля Богов / Asterix: Le domaine des dieux (Луис Клиши, Александр Астье) [мультфильм, приключения, фэнтези, комедия, 2014] BDRip 720p, Dub [iTunes]

Dracon

1105 | 88

3.36 ГБ

В этой теме нет новых непрочитанных сообщений. Астерикс из Галлии / Astérix le Gaulois [мультфильм, боевик, комедия, 1967] BDRip 1080p, Mvo

salma3

23 | 3

4.76 ГБ

В этой теме нет новых непрочитанных сообщений. Астерикс и Обеликс против Цезаря / Asterix et Obelix contre Cesar [фэнтези, комедия, приключения, семейный, 1999] BDRip, Dub+Sub

salma3

40 | 16

2.18 ГБ

В этой теме нет новых непрочитанных сообщений. Викинги / Vikings (Сезон 1-3, Серии 1-20 из 29) (Киаран Доннелли, Йохан Ренк, Кен Джиротти) [2013-2015, Историческая драма, приключения, боевик, викинги, WEBDLRip-AVC 1080р] [DD5.1] [MVO] [NewStudio]

Враг Нароода

В этой теме нет новых непрочитанных сообщений. Викинги / Vikings (Сезон 1-3, Серии 1-21 из 29) (Киаран Доннелли, Йохан Ренк, Кен Джиротти) [2013-2015, Историческая драма, приключения, боевик, викинги, WEBDLRip-AVC 1080р] [DD5.1] [MVO] [NewStudio]

Враг Нароода

1 | 3

39.3 ГБ


Начать новую тему Ответить на тему  [ 1 сообщение ] 




Для Мосгорсуда, Роскомнадзора и рекламодателей:: mosgorsud-torrent[собачка]yandex.ru