Торрент файл
скачать торрент магнет ссылка Добавлен: 17 мар 2017, 12:04
Размер: 1.57 ГБ
Сидеров: 348
Личеров: 55
Статус: (salma3)
Автор

СообщениеДобавлено: 17 мар 2017, 12:04 

Не в сети
Супермодератор
Аватара пользователя
Дата регистрации:
15 фев 2012, 16:44
Возраст: 30
Спасибо: 8185 / 2148
Сообщения: 95725
Страна: США Канада
Производство: Lionsgate Home Entertainment, Digitales Studios, Splash Entertainment
Год выпуска: 2016
Жанр: мультфильм, фэнтези, комедия, приключения, семейный
Продолжительность: 00:47:27
Режиссер: Тим Молтби
Авторы сценария: Том Кейн, Стив Мур
В ролях: Бен Дискин, Кейт Хиггинс, Деби Дерриберри, Мэриев Херингтон, Эрин Фицджералд, Крис Кент, Эдвард Боско, Дрю Уотерс
Описание: Стинки, Клодетт и Рант очень скучают по лесным зарослям, но изменить ничего нельзя, безопасность молодого семейства на первом месте, поэтому малышам остаётся смириться. Они начинают исследовать свой новый дом, даже не подозревая к каким опасным последствиям приведёт их любопытство. Обследуя округу, главные герои встречают неизвестное существо. Поначалу волчата сильно напугались, ведь они даже не догадываются, что перед ними настоящий динозавр...

Перевод: Профессиональный (полное дублирование) | SDI Media
Субтитры: русские (forced), английские

Качество: WEB-DL 720р
Формат: МКV
Видео кодек: AVC
Аудио кодек: АС3
Видео: 1280x716 (16:9), 23.976 fps, MPEG-4 AVC ~4 162 kbps avg
Аудио №1: 48.0 kHz, AC3 Dolby Digital, 2/0 (L,R) ch, ~192 kbps | DUB | SDI Media
Аудио №2: 48.0 kHz, AC3 Dolby Digital, 3/2 (L,C,R,l,r) + LFE ch, ~384 kbps | ENG
Формат субтитров UTF-8 Plain Text
Дата премьеры (мир): 10 мая 2016

Релиз от: -Azureus-
General
Уникальный идентификатор : 206162359626897646437191646051019165472 (0x9B196D1A3452C6F8A8D21F52200E8F20)
Полное имя : Alpha and Omega 6. Dino Digs.2016.WEB-DL 720p.mkv
Формат : Matroska
Версия формата : Version 4 / Version 2
Размер файла : 1,57 Гбайт
Продолжительность : 47 м.
Общий поток : 4740 Кбит/сек
Название фильма : Alpha and Omega 6: Dino Digs.2016.WEB-DL 720p -Azureus-
Дата кодирования : UTC 2017-03-13 11:01:59
Программа кодирования : mkvmerge v9.4.0 ('Knurl') 64bit
Библиотека кодирования : libebml v1.3.4 + libmatroska v1.4.5
Видео
Идентификатор : 1
Формат : AVC
Формат/Информация : Advanced Video Codec
Профиль формата : High@L3.1
Параметр CABAC формата : Нет
Параметр ReFrames формата : 2 кадра
Идентификатор кодека : V_MPEG4/ISO/AVC
Продолжительность : 47 м.
Битрейт : 4162 Кбит/сек
Ширина : 1280 пикселей
Высота : 716 пикселей
Соотношение сторон : 16:9
Режим частоты кадров : Постоянный
Частота кадров : 23,976 (24000/1001) кадра/сек
Цветовое пространство : YUV
Субдискретизация насыщенности : 4:2:0
Битовая глубина : 8 бит
Тип развёртки : Прогрессивная
Бит/(Пиксели*Кадры) : 0.189
Размер потока : 1,38 Гбайт (88%)
Язык : English
Default : Да
Forced : Нет
Цветовой диапазон : Limited
Основные цвета : BT.709
Характеристики трансфера : BT.709
Коэффициенты матрицы : BT.709
Аудио #1
Идентификатор : 2
Формат : AC-3
Формат/Информация : Audio Coding 3
Расширение режима : CM (complete main)
Параметр Endianness формата : Big
Идентификатор кодека : A_AC3
Продолжительность : 47 м.
Вид битрейта : Постоянный
Битрейт : 192 Кбит/сек
Каналы : 2 канала
Расположение каналов : Front: L R
Частота : 48,0 КГц
Частота кадров : 31,250 кадров/сек (1536 spf)
Метод сжатия : С потерями
Размер потока : 65,2 Мбайт (4%)
Заголовок : DUB - SDI Media
Язык : Russian
Default : Да
Forced : Нет
Аудио #2
Идентификатор : 3
Формат : AC-3
Формат/Информация : Audio Coding 3
Расширение режима : CM (complete main)
Параметр Endianness формата : Big
Идентификатор кодека : A_AC3
Продолжительность : 47 м.
Вид битрейта : Постоянный
Битрейт : 384 Кбит/сек
Каналы : 6 каналов
Расположение каналов : Front: L C R, Side: L R, LFE
Частота : 48,0 КГц
Частота кадров : 31,250 кадров/сек (1536 spf)
Метод сжатия : С потерями
Размер потока : 130 Мбайт (8%)
Заголовок : ENG
Язык : English
Default : Нет
Forced : Нет
Текст #1
Идентификатор : 4
Формат : UTF-8
Идентификатор кодека : S_TEXT/UTF8
Идентификатор кодека/Информация : UTF-8 Plain Text
Продолжительность : 9 м. 10 с.
Битрейт : 6 бит/сек
Count of elements : 9
Размер потока : 468 байт (0%)
Заголовок : Rus Sub - forced (SergeZuich)
Язык : Russian
Default : Да
Forced : Нет
Текст #2
Идентификатор : 5
Формат : UTF-8
Идентификатор кодека : S_TEXT/UTF8
Идентификатор кодека/Информация : UTF-8 Plain Text
Продолжительность : 43 м.
Битрейт : 94 бит/сек
Count of elements : 755
Размер потока : 30,1 Кбайт (0%)
Заголовок : Eng Sub
Язык : English
Default : Нет
Forced : Нет
Меню
00:00:00.000 : en:1
00:02:03.000 : en:2
00:11:55.000 : en:3
00:20:14.000 : en:4
00:29:45.000 : en:5
00:38:59.000 : en:6
00:43:55.000 : en:7


_________________
Проголосуй за трекер Открытый торрент трекер - RUS-MEDIA.ORG

Проголосуй Открытый торрент трекер - RUS-MEDIA.ORG


Скачать книги и аудио книги через торрент


Вернуться к началу
 Профиль Отправить личное сообщение  
 
   Похожие торренты   Автор   Торрент   Размер 
В этой теме нет новых непрочитанных сообщений. Альфа / Alpha [Драма, приключения, семейный, 2018] WEB-DLRip, Mvo [iTunes]

salma3

203 | 51

745.81 МБ

В этой теме нет новых непрочитанных сообщений. Альфа / Alpha [Драма, приключения, семейный, 2018] WEB-DLRip, Mvo [iTunes]

salma3

0 | 0

748.83 МБ

В этой теме нет новых непрочитанных сообщений. Альфа / Alpha [Драма, приключения, семейный, 2018] WEB-DL 1080p, Mvo [iTunes]

salma3

1423 | 7283

3.68 ГБ

В этой теме нет новых непрочитанных сообщений. Альфа / Alpha [Драма, приключения, семейный, 2018] WEB-DL 720p, Mvo [iTunes]

salma3

0 | 0

3.31 ГБ

В этой теме нет новых непрочитанных сообщений. Альфа / Alpha [Драма, приключения, семейный, 2018] WEB-DLRip, Mvo [iTunes]

salma3

8296 | 2531

1.46 ГБ

В этой теме нет новых непрочитанных сообщений. Альфа / Alpha [Драма, приключения, семейный, 2018] BDRip, Mvo [iTunes]

salma3

0 | 0

1.42 ГБ

В этой теме нет новых непрочитанных сообщений. Альфа / Alpha [Драма, приключения, семейный, 2018] BDRip, Mvo [Лицензия]

salma3

0 | 0

1.46 ГБ


Начать новую тему Ответить на тему  [ 1 сообщение ] 




Для Мосгорсуда, Роскомнадзора и рекламодателей:: mosgorsud-torrent[собачка]yandex.ru
cron