Торрент файл
скачать торрент магнет ссылка Добавлен: 27 фев 2017, 12:13
Размер: 2.06 ГБ
Сидеров: 124
Личеров: 37
Статус: (salma3)
Автор

СообщениеДобавлено: 27 фев 2017, 12:13 

В сети
Супермодератор
Аватара пользователя
Дата регистрации:
15 фев 2012, 16:44
Возраст: 28
Спасибо: 6920 / 2147
Сообщения: 52803
Год выхода: 2017
Страна: США, Appa Productions, Rainmaker Entertainment
Жанр: Мультфильм, полнометражный, детский
Продолжительность: ~ 01:12:16
Перевод: Дублированный | iTunes
Режиссеры: Конрад Хелтен, Зик Нортон, Майкл Гогуэн

Роли озвучивали: Эрика Линдбек, Сиенна Бон, Шеннон Чан-Кент, Майкл Добсон, Alyssya Swales, Rebekah Asselstine, Брэд Свэйл, Сэм Винсент, Ингрид Нилсон, Неста Купер

О фильме:
Чудесным образом Барби попадает в мир любимой компьютерной игры и превращается в забавного персонажа на роликовых коньках. Здесь она встречает симпатичного друга в форме облака и принцессу Бэллу на роликовых коньках. Вскоре они вместе обнаруживают, что мир игры в опасности: озорные смайлики пытаются взять контроль над ним. Путешествуя из уровня в уровень, Барби будет полагаться на свои поразительные игровые навыки и смекалку, чтобы спасти всю команду и победить в игре. И, конечно же, в этом ей помогут новые друзья!



Файл
Качество: BDRip 720p
Видео: MPEG-4 AVC, 1280x720 [16:9], 23.976 FPS, ~ 3 162 Kbps
Звук: 48 kHz, AC3, 2.0, ~192.00 kbps
Звук: 48 kHz, AC3, 5.1, ~640.00 kbps
Субтитры: Английские (SDH, Full)

Барби. Виртуальный мир.2017.Dub.BDRip.720p.mkv
Format : Matroska
Format version : Version 2
File size : 2.06 GiB
Duration : 1 h 12 min
Overall bit rate : 4 075 kb/s
Movie name : Barbie Video Game Hero / 2017 / Blu Ray
Encoded date : UTC 2017-02-25 15:27:26
Writing application : mkvmerge v5.8.0 ('No Sleep / Pillow') built on Sep 2 2012 15:37:04
Writing library : libebml v1.2.3 + libmatroska v1.3.0
Video
ID : 1
Format : AVC
Format/Info : Advanced Video Codec
Format profile : High@L4.1
Format settings, CABAC : Yes
Format settings, ReFrames : 9 frames
Codec ID : V_MPEG4/ISO/AVC
Duration : 1 h 12 min
Bit rate : 3 162 kb/s
Width : 1 280 pixels
Height : 720 pixels
Display aspect ratio : 16:9
Frame rate mode : Constant
Frame rate : 23.976 (24000/1001) FPS
Color space : YUV
Chroma subsampling : 4:2:0
Bit depth : 8 bits
Scan type : Progressive
Bits/(Pixel*Frame) : 0.143
Stream size : 1.60 GiB (78%)
Title : Барби: Виртуальный мир. BDRip.720p.h264.-EtHD-
Writing library : x264 core 148 r2638 7599210
Encoding settings : cabac=1 / ref=9 / deblock=1:-3:-3 / analyse=0x3:0x133 / me=umh / subme=10 / psy=1 / psy_rd=0.40:0.00 / mixed_ref=1 / me_range=24 / chroma_me=1 / trellis=2 / 8x8dct=1 / cqm=0 / deadzone=21,11 / fast_pskip=0 / chroma_qp_offset=-2 / threads=4 / lookahead_threads=1 / sliced_threads=0 / nr=0 / decimate=0 / interlaced=0 / bluray_compat=0 / constrained_intra=0 / bframes=10 / b_pyramid=2 / b_adapt=2 / b_bias=0 / direct=3 / weightb=1 / open_gop=0 / weightp=2 / keyint=240 / keyint_min=23 / scenecut=40 / intra_refresh=0 / rc_lookahead=60 / rc=crf / mbtree=0 / crf=17.0 / qcomp=0.60 / qpmin=0 / qpmax=69 / qpstep=4 / vbv_maxrate=62500 / vbv_bufsize=78125 / crf_max=0.0 / nal_hrd=none / filler=0 / ip_ratio=1.40 / pb_ratio=1.30 / aq=1:0.60
Language : English
Default : Yes
Forced : No
Audio #1
ID : 2
Format : AC-3
Format/Info : Audio Coding 3
Mode extension : CM (complete main)
Format settings, Endianness : Big
Codec ID : A_AC3
Duration : 1 h 12 min
Bit rate mode : Constant
Bit rate : 192 kb/s
Channel(s) : 2 channels
Channel positions : Front: L R
Sampling rate : 48.0 kHz
Frame rate : 31.250 FPS (1536 spf)
Bit depth : 16 bits
Compression mode : Lossy
Delay relative to video : 17 ms
Stream size : 99.2 MiB (5%)
Title : Dub ( iTunes)
Language : Russian
Default : Yes
Forced : No
Audio #2
ID : 3
Format : AC-3
Format/Info : Audio Coding 3
Mode extension : CM (complete main)
Format settings, Endianness : Big
Codec ID : A_AC3
Duration : 1 h 12 min
Bit rate mode : Constant
Bit rate : 640 kb/s
Channel(s) : 6 channels
Channel positions : Front: L C R, Side: L R, LFE
Sampling rate : 48.0 kHz
Frame rate : 31.250 FPS (1536 spf)
Bit depth : 16 bits
Compression mode : Lossy
Stream size : 331 MiB (16%)
Title : eng
Language : English
Default : No
Forced : No
Text #1
ID : 4
Format : UTF-8
Codec ID : S_TEXT/UTF8
Codec ID/Info : UTF-8 Plain Text
Title : English (SDH)
Language : English
Default : No
Forced : No
Text #2
ID : 5
Format : UTF-8
Codec ID : S_TEXT/UTF8
Codec ID/Info : UTF-8 Plain Text
Title : English
Language : English
Default : No
Forced : No
Menu
00:00:00.000 : en:00:00:00.000
00:05:07.766 : en:00:05:07.766
00:09:55.929 : en:00:09:55.929
00:14:25.823 : en:00:14:25.823
00:19:27.917 : en:00:19:27.917
00:25:00.290 : en:00:25:00.290
00:31:42.192 : en:00:31:42.192
00:36:37.612 : en:00:36:37.612
00:41:20.561 : en:00:41:20.561
00:47:53.454 : en:00:47:53.454
00:57:54.846 : en:00:57:54.846
01:05:30.969 : en:01:05:30.969


Релиз от:


_________________
Проголосуй за трекер Открытый торрент трекер - RUS-MEDIA.ORG

Проголосуй Открытый торрент трекер - RUS-MEDIA.ORG



реклама партнёра


Вернуться к началу
 Профиль Отправить личное сообщение  
 
   Похожие торренты   Автор   Торрент   Размер 
В этой теме нет новых непрочитанных сообщений. Барби: Виртуальный мир / Barbie Video Game Hero [Мультфильм, полнометражный, детский, 2017] BDRip, Dub [iTunes]

salma3

146 | 123

1.01 ГБ

В этой теме нет новых непрочитанных сообщений. Барби и её сестры в погоне за щенками / Barbie & Her Sisters in a Puppy Chase [Мультфильм, полнометражный, детский, семейный, приключения, 2016] BDRip 720p, Dub [iTunes]

salma3

32 | 20

3.48 ГБ

В этой теме нет новых непрочитанных сообщений. Барби и её сестры в погоне за щенками / Barbie & Her Sisters in a Puppy Chase [Мультфильм, полнометражный, детский, 2016] HDRip, Dub [iTunes]

salma3

328 | 114

1.37 ГБ

В этой теме нет новых непрочитанных сообщений. Барби и команда шпионов / Barbie: Spy Squad [мультфильм, семейный, 2016] BDRip, Dub [Лицензия]

salma3

80 | 8

1.47 ГБ

В этой теме нет новых непрочитанных сообщений. Барби и команда шпионов / Barbie: Spy Squad (мультфильм, семейный, 2016) BDRip от rs.bandito | D

marya111

82 | 8

745.54 МБ

В этой теме нет новых непрочитанных сообщений. Город героев / Big Hero 6 (Дон Холл, Крис Уильямс) [мультфильм, фантастика, комедия, семейный, боевик, 2014] BDRip 1080p, Dub+Sub [3D-Video | iTunes]

Dracon

144 | 9

5.17 ГБ

В этой теме нет новых непрочитанных сообщений. Супергерои / Bling [Мультфильм, детский, семейный, полнометражный, 2016] BDRemux 1080p, Dub [iTunes]

salma3

12 | 12

11.85 ГБ


Начать новую тему Ответить на тему  [ 1 сообщение ] 




Для Мосгорсуда, Роскомнадзора и рекламодателей:: mosgorsud-torrent[собачка]yandex.ru
cron