Торрент файл
скачать торрент магнет ссылка Добавлен: 25 фев 2017, 13:09
Размер: 5.93 ГБ
Сидеров: 1
Личеров: 0
Статус: (salma3)
Автор

СообщениеДобавлено: 25 фев 2017, 13:09 

Не в сети
Супермодератор
Аватара пользователя
Дата регистрации:
15 фев 2012, 16:44
Возраст: 28
Спасибо: 7163 / 2147
Сообщения: 61819
Год выпуска: 2012-2013
Страна: Великобритания, V&S Entertainment
Жанр: Мультсериал, детский, приключения
Продолжительность: 25 х ~ 00:11:09
Перевод: Профессиональный дублированный
Режиссёры: Виктория Корнер, Джин Флинн
Озвучивали: Эмма Тейт, Джоэнна Руис, ...

Описание: Главная героиня мультипликационного сериала — добрая и заботливая Рози, которая живет вместе с кроликом Регглсом на вершине холма в игрушечном домике. Каждый день девочка вместе с друзьями отправляется на поиски новых приключений и открытий. Искать ответы на сложные вопросы и решать головоломки Рози помогают Синяя птица, старый дуб Оэкли, Большой медведь, робкая малышка Холли и оптимист Уилл.

Файл
Формат: MP4
Качество: WEB-DLRip 1080p
Видео: MPEG4-AVC, 1920x1080 (16:9), 25 fps, ~3 782 kbps avg, 0.073 bit/pixel
Аудио: 44,1 kHz, AАC-LC, 2.0, ~126 kbpsp


Семпл

Сезон 3 (18 Июня 2012 - 30 марта 2013)
01. Оно из космоса / It Came From Up There
02. Вода, вода везде! / Water, Water Everywhere
03. Я и моя тень / Me and My Shadow
04. Маленькие уроки / Little Lessons
05. Гармония урожая / Harvest Harmony
06. Срочная доставка / Oakley's Special Delivery
07. Мама Хвостик / Mamma Raggles
08. Уилл - фотограф / Snap Happy Will
09. Холли - рукодельница / Holly Wraps It Up
10. Как динозавры по саду бродили / When Dinosaurs Roamed The Garden
11. Королевская кутерьма / A Right Royal Mess
12. Где-то под радугой / Somewhere Under The Rainbow
13. Сказка всегда рядом / Close Encounters of the Fairy Kind
14. Поверь в слона / The Elephant in the Room
15. Мини-сафари / Mini Beast Safari
16. Ураган в чаще / Storm in a Tea Cup
17. Гигантская история / A Tall Story
18. Сюрприз, сюрприз / The Surprise Surprise
19. Вокруг света за один день / Around The World in a Day
20. Звездопад / Twinkle, Twinkle
21. Удивительное исчезновение пчел / The Incredible Vanishing Bees
22. Верните мне, пожалуйста, голос / Can I Have My Voice Back Please?
23. Секретная миссия космического бегемота / Space Hippos Secret Mission
24.
25. Письмо в бутылке ягодного лимонада / Message in a Bozberry Bottle
26. Снежный медведь / The Abominable Snow Bear
s3e25. Письмо в бутылке ягодного лимонада. Full-HD-merci-.mp4
Format : MPEG-4
Format profile : Base Media
Codec ID : isom (isom/mp42)
File size : 312 MiB
Duration : 11 min 9 s
Overall bit rate mode : Variable
Overall bit rate : 3 913 kb/s
Encoded date : UTC 2017-02-02 11:00:59
Tagged date : UTC 2017-02-02 11:00:59
gsst : 0
gstd : 672937
Video
ID : 1
Format : AVC
Format/Info : Advanced Video Codec
Format profile : High@L4
Format settings, CABAC : Yes
Format settings, ReFrames : 2 frames
Format settings, GOP : M=1, N=2
Codec ID : avc1
Codec ID/Info : Advanced Video Coding
Duration : 11 min 9 s
Source duration : 11 min 9 s
Bit rate : 3 782 kb/s
Width : 1 920 pixels
Height : 1 080 pixels
Display aspect ratio : 16:9
Frame rate mode : Constant
Frame rate : 25.000 FPS
Color space : YUV
Chroma subsampling : 4:2:0
Bit depth : 8 bits
Scan type : Progressive
Bits/(Pixel*Frame) : 0.073
Stream size : 302 MiB (97%)
Source stream size : 302 MiB (97%)
Language : English
Encoded date : UTC 2017-02-02 11:00:59
Tagged date : UTC 2017-02-02 11:00:59
Color range : Limited
Color primaries : BT.709
Transfer characteristics : BT.709
Matrix coefficients : BT.709
mdhd_Duration : 669840
Audio
ID : 2
Format : AAC
Format/Info : Advanced Audio Codec
Format profile : LC
Codec ID : 40
Duration : 11 min 9 s
Duration_FirstFrame : -5 ms
Bit rate mode : Variable
Bit rate : 126 kb/s
Channel(s) : 2 channels
Channel positions : Front: L R
Sampling rate : 44.1 kHz
Frame rate : 43.066 FPS (1024 spf)
Compression mode : Lossy
Stream size : 10.0 MiB (3%)
Language : English
Encoded date : UTC 2017-02-02 11:00:59
Tagged date : UTC 2017-02-02 11:00:59
mdhd_Duration : 669891




Релиз от: Автор релиза: /


_________________
Проголосуй за трекер Открытый торрент трекер - RUS-MEDIA.ORG

Проголосуй Открытый торрент трекер - RUS-MEDIA.ORG


Вернуться к началу
 Профиль Отправить личное сообщение  
 
   Похожие торренты   Автор   Торрент   Размер 
В этой теме нет новых непрочитанных сообщений. Всё о Рози / Everything's Rosie / 1-2 сезон: 52 серии из 52 [мультсериал, детский, приключения, познавательный, 2010-2011]SATRip, Mvo

salma3

12 | 11

7.57 ГБ

В этой теме нет новых непрочитанных сообщений. Бумажки [01-62] (Мультсериал, детский, семейный, приключения, 2015-2016) WEB-DLRip 1080p от ExKinoRay

marya111

0 | 0

5.33 ГБ

В этой теме нет новых непрочитанных сообщений. Буба (booba) [1-15 + Бонусы] (Мультсериал, детский, приключения, комедия, 2014-2016) WEB-DLRip 1080p от ExKinoRay

marya111

119 | 12

1.08 ГБ

В этой теме нет новых непрочитанных сообщений. Буба (booba) [1-13 + Бонусы] (Мультсериал, детский, приключения, комедия, 2014-2016) WEB-DLRip 1080p от ExKinoRay

marya111

138 | 17

975.38 МБ

В этой теме нет новых непрочитанных сообщений. Сидр и Рози / Cider with Rosie (Филиппа Лоуторп / Philippa Lowthorpe) [2015г., Великобритания, мелодрама, экранизация, HDTVRip] Sub

Alfredovich

23 | 7

956.54 МБ

В этой теме нет новых непрочитанных сообщений. Марин и его друзья. Подводные истории / Bubble Marin [s01 + Бонусы] (Мультсериал, мультфильм, приключения, детский, 2014-2015) WEB-DLRip 1080p от ExKinoRay | D (Карусель)

marya111

25 | 6

13.59 ГБ

В этой теме нет новых непрочитанных сообщений. Три кота [01-38] ( Мультсериал, детский, приключения, комедия, 2015-2016) WEB-DLRip от ExKinoRay

marya111

49 | 11

2.21 ГБ


Начать новую тему Ответить на тему  [ 1 сообщение ] 




Для Мосгорсуда, Роскомнадзора и рекламодателей:: mosgorsud-torrent[собачка]yandex.ru
cron