Торрент файл
скачать торрент магнет ссылка Добавлен: 10 фев 2017, 16:38
Размер: 746.44 МБ
Сидеров: 226
Личеров: 42
Автор

СообщениеДобавлено: 10 фев 2017, 16:38 

Не в сети
Дата регистрации:
28 сен 2016, 18:10
Спасибо: 216 / 0
Сообщения: 1997
Информация о фильме
Оригинальное название: Снежная королева 3. Огонь и лед
Год выпуска: 2016
Жанр: Мультфильм, комедия, приключения, семейный
Режиссер: Алексей Цицилин
Роли озвучивали: Наталия Быстрова, Филипп Лебедев, Диомид Виноградов, Александр Груздев, Михаил Тихонов, Николай Быстров, Ольга Шорохова, Ольга Зубкова, Всеволод Кузнецов, Филл Савенков
О фильме:
Редкий дар ввязываться во всевозможные неприятности — их семейная черта, да и что взять с тех, кто вырос среди снегов в компании троллей. Но повзрослев, Кай и Герда выходят на новый уровень — теперь они станут виновниками катастрофы мирового масштаба...

Страна: Россия
Студия: Кинокомпании «Flame Node Entertainment», «Wizart Animation»
Продолжительность: 01:29:36
Перевод: Не требуется
Файл
Формат: avi
Качество: WEB-DLRip
Видео: XviD build 73, 720x320 (2.25:1), 24.000 fps, 1027 Kbps (0.186 bit/pixel)
Звук: 48.0 kHz, MP3, 2/0 ch, 128 kbps
Субтитры: нет
General
Complete name : D:Kinozal.TVS.Koroleva.3.2016.XviD.WEB-DLRip.GeneralFilm.avi
Format : AVI
Format/Info : Audio Video Interleave
File size : 746 MiB
Duration : 1h 29mn
Overall bit rate : 1 165 Kbps
Writing application : VirtualDubMod 1.5.10.3 | www.virtualdub-fr.org || (build 2550/release)
Writing library : VirtualDubMod build 2550/release
Video
ID : 0
Format : MPEG-4 Visual
Format profile : Advanced Simple@L5
Format settings, BVOP : 1
Format settings, QPel : No
Format settings, GMC : No warppoints
Format settings, Matrix : Custom
Codec ID : XVID
Codec ID/Hint : XviD
Duration : 1h 29mn
Bit rate : 1 027 Kbps
Width : 720 pixels
Height : 320 pixels
Display aspect ratio : 2.25:1
Frame rate : 24.000 fps
Color space : YUV
Chroma subsampling : 4:2:0
Bit depth : 8 bits
Scan type : Progressive
Compression mode : Lossy
Bits/(Pixel*Frame) : 0.186
Stream size : 658 MiB (88%)
Writing library : XviD 73
Audio
ID : 1
Format : MPEG Audio
Format version : Version 1
Format profile : Layer 3
Codec ID : 55
Codec ID/Hint : MP3
Duration : 1h 29mn
Bit rate mode : Constant
Bit rate : 128 Kbps
Channel(s) : 2 channels
Sampling rate : 48.0 KHz
Compression mode : Lossy
Stream size : 82.0 MiB (11%)
Alignment : Aligned on interleaves
Interleave, duration : 42 ms (1.00 video frame)
Interleave, preload duratio : 504 ms
Writing library : LAME3.99r
Encoding settings : -m s -V 4 -q 0 -lowpass 17 -b 128


Релиз от:



Вернуться к началу
 Профиль Отправить личное сообщение  
 
   Похожие торренты   Автор   Торрент   Размер 
В этой теме нет новых непрочитанных сообщений. Снежная королева 3. Огонь и лед [Мультфильм, комедия, приключения, семейный, 2016] WEB-DLRip [iTunes]

salma3

10291 | 2457

1.46 ГБ

В этой теме нет новых непрочитанных сообщений. Снежная королева 3. Огонь и лед [Мультфильм, комедия, приключения, семейный, 2016] WEB-DLRip [iTunes]

salma3

519 | 121

746.5 МБ

В этой теме нет новых непрочитанных сообщений. Снежная королева 3. Огонь и лед (мультфильм, комедия, приключения, семейный, 2016) WEB-DLRip от Scarabey | iTunes

marya111

1048 | 78

1.45 ГБ

В этой теме нет новых непрочитанных сообщений. Снежная королева 3. Огонь и лед [Мультфильм, фэнтези, приключения, семейный, полнометражный, 2016] WEB-DL 1080p [iTunes]

salma3

5306 | 728

3.06 ГБ

В этой теме нет новых непрочитанных сообщений. Бременские разбойники (Мультфильм, комедия, приключения, музыка, 2016) WEB-DLRip от Generalfilm | КПК | iTunes

marya111

92 | 5

372.5 МБ

В этой теме нет новых непрочитанных сообщений. Бременские разбойники (Мультфильм, комедия, приключения, музыка, 2016) WEB-DLRip от GeneralFilm | iTunes

marya111

249 | 10

745.03 МБ

В этой теме нет новых непрочитанных сообщений. Кубо. Легенда о самурае / Kubo and the Two Strіngs ( Мультфильм, фэнтези, приключения, семейный, 2016) HDRip от Generalfilm | КПК | iTunes

marya111

61 | 16

380.5 МБ


Начать новую тему Ответить на тему  [ 1 сообщение ] 




Для Мосгорсуда, Роскомнадзора и рекламодателей:: mosgorsud-torrent[собачка]yandex.ru
cron