Торрент файл
скачать торрент магнет ссылка Добавлен: 05 фев 2017, 14:21
Размер: 111.72 МБ
Сидеров: 399
Личеров: 19
Автор

СообщениеДобавлено: 05 фев 2017, 14:21 

Не в сети
Дата регистрации:
28 сен 2016, 18:10
Спасибо: 205 / 0
Сообщения: 2003
Информация о фильме
Оригинальное название: Маша и Медведь: Спи, моя радость, усни!
Год выхода: 2017
Страна: Россия, Студия "Анимаккорд"
Жанр: Мультсериал, сказка, детский, семейный
Продолжительность: 00:07:04
Язык: русский
Режиссер: Владислав Байрамгулов
Режиссёр озвучивания: Алина Кукушкина
Роли озвучивали:
Маша - Варя Саранцева
Медведь - Борис Кутневич
Песня "Колыбельная" - исполняет Варя Саранцева
О фильме:
Медведь делится с Машей опытом залегания в зимнюю спячку и учит ее считать овечек, чтобы быстрее уснуть!
Маша так увлекается их подсчётом, что затевает свою, совсем не колыбельную историю с весёлыми песнями и танцами…




Файл
Формат: AVI
Качество: WEB-DLRip
Видео: 720x400 (1.80:1), 25 fps, XviD build 73 ~2008 kbps avg, 0.28 bit/pixel
Звук: 48 kHz, AC3 Dolby Digital, 2/0 (L,R) ch, ~192.00 kbps avg
Субтитры: нет
62. Спи, моя радость, усни! XviD-merci-.avi
Format : AVI
Format/Info : Audio Video Interleave
File size : 112 MiB
Duration : 7 min 4 s
Overall bit rate : 2 210 kb/s
Writing application : VirtualDubMod 1.5.10.3 | www.virtualdub-fr.org || (build 2550/release)
Writing library : VirtualDubMod build 2550/release
Video
ID : 0
Format : MPEG-4 Visual
Format profile : Advanced Simple@L5
Format settings, BVOP : 1
Format settings, QPel : No
Format settings, GMC : No warppoints
Format settings, Matrix : Default (MPEG)
Codec ID : XVID
Codec ID/Hint : XviD
Duration : 7 min 4 s
Bit rate : 2 008 kb/s
Width : 720 pixels
Height : 400 pixels
Display aspect ratio : 16:9
Frame rate : 25.000 FPS
Color space : YUV
Chroma subsampling : 4:2:0
Bit depth : 8 bits
Scan type : Progressive
Compression mode : Lossy
Bits/(Pixel*Frame) : 0.279
Stream size : 102 MiB (91%)
Writing library : XviD 73
Audio
ID : 1
Format : AC-3
Format/Info : Audio Coding 3
Mode extension : CM (complete main)
Format settings, Endianness : Big
Codec ID : 2000
Duration : 7 min 4 s
Bit rate mode : Constant
Bit rate : 192 kb/s
Channel(s) : 2 channels
Channel positions : Front: L R
Sampling rate : 48.0 kHz
Frame rate : 31.250 FPS (1536 spf)
Bit depth : 16 bits
Compression mode : Lossy
Stream size : 9.70 MiB (9%)
Alignment : Split accross interleaves
Interleave, duration : 40 ms (1.00 video frame)
Interleave, preload duratio : 500 ms


Релиз от:
Автор релиза: /




реклама партнёра


Вернуться к началу
 Профиль Отправить личное сообщение  
 
   Похожие торренты   Автор   Торрент   Размер 
В этой теме нет новых непрочитанных сообщений. Маша и медведь: Три Машкетёра [64] [Мультсериал, сказка, детский, семейный, 2017] WEB-DLRip

salma3

157 | 8

128.1 МБ

В этой теме нет новых непрочитанных сообщений. Маша и медведь: Game Over [59] ( Мультсериал, сказка, детский, семейный, 2016) WEB-DL 1080p от ExKinoRay

marya111

186 | 2

276.84 МБ

В этой теме нет новых непрочитанных сообщений. Маша и медведь: С любимыми не расставайтесь [61] ( Мультсериал, сказка, детский, семейный, 2016) WEB-DL 1080p от ExKinoRay

marya111

328 | 12

274.78 МБ

В этой теме нет новых непрочитанных сообщений. Маша и Медведь. Учитель танцев [46] [Мультсериал, сказка, детский, семейный. 2014] WEB-DLRip

Dracon

1559 | 32

108.86 МБ

В этой теме нет новых непрочитанных сообщений. Маша и медведь: Крик победы [47] [Мультсериал, сказка, детский, семейный. 2014] WEB-DLRip

Dracon

71 | 3

281.49 МБ

В этой теме нет новых непрочитанных сообщений. Маша и медведь: Есть контакт! [65] [сказка, детский, семейный, 2017] WEB-DLRip

salma3

733 | 60

95.99 МБ

В этой теме нет новых непрочитанных сообщений. Маша и медведь: На круги своя [53] (Олег Кузовков, Олег Ужинов, Денис Червяцов) [Мультсериал, сказка, детский, семейный, 2015] WEB-DLRip

Dracon

1966 | 37

98.7 МБ


Начать новую тему Ответить на тему  [ 1 сообщение ] 




Для Мосгорсуда, Роскомнадзора и рекламодателей:: mosgorsud-torrent[собачка]yandex.ru