Торрент файл
скачать торрент магнет ссылка Добавлен: 04 фев 2017, 16:49
Размер: 30.12 МБ
Сидеров: 24
Личеров: 0
Автор

СообщениеДобавлено: 04 фев 2017, 16:49 

Не в сети
Дата регистрации:
28 сен 2016, 18:10
Спасибо: 231 / 0
Сообщения: 1989
Информация о фильме
Название: Маша и Медведь. Песенка про время
Год выхода: 2016
Жанр: Мультфильм
Режиссер: Георгий Орлов
В ролях: Варвара Саранцева, Борис Кутневич, Марк Кутневич, Катя Кутневич
О фильме:
Приходит волшебное время чудес! Маша с нетерпением ждёт новогодних подарков- новых кукол и игрушек…однако ее старые друзья, похоже, на неё обиделись. Маше приходится ответить на непростой вопрос: как сохранить дружбу и не растерять старых друзей в погоне за новогодними желаниями?
Страна: Россия
Студия: Анимаккорд
Продолжительность: 00:03:06
Перевод: Не требуется
Файл
Кодек: XviD
Качество: WEBRip
Видео: 720x400 (1.80:1), 25 fps, XviD build 73 ~1218 kbps avg, 0.17 bit/pixel
Звук: 44.100 kHz, MPEG Layer 3, 2 ch, ~128.00 kbps avg
Субтитры: Отсутствуют
Семпл
General
Complete name : D:Изготовление рипаMasha.i.medved_pesenka_pro_vremia_WEBRip by shkiper.avi
Format : AVI
Format/Info : Audio Video Interleave
File size : 30.1 MiB
Duration : 3 min 6 s
Overall bit rate : 1 357 kb/s
Writing application : VirtualDubMod 1.5.10.3 | www.virtualdub-fr.org || (build 2550/release)
Writing library : VirtualDubMod build 2550/release
Video
ID : 0
Format : MPEG-4 Visual
Format profile : Advanced Simple@L5
Format settings, BVOP : 1
Format settings, QPel : No
Format settings, GMC : No warppoints
Format settings, Matrix : Custom
Codec ID : XVID
Codec ID/Hint : XviD
Duration : 3 min 6 s
Bit rate : 1 219 kb/s
Width : 720 pixels
Height : 400 pixels
Display aspect ratio : 16:9
Frame rate : 25.000 FPS
Color space : YUV
Chroma subsampling : 4:2:0
Bit depth : 8 bits
Scan type : Progressive
Compression mode : Lossy
Bits/(Pixel*Frame) : 0.169
Stream size : 27.1 MiB (90%)
Writing library : XviD 73
Audio
ID : 1
Format : MPEG Audio
Format version : Version 1
Format profile : Layer 3
Codec ID : 55
Codec ID/Hint : MP3
Duration : 3 min 6 s
Bit rate mode : Constant
Bit rate : 128 kb/s
Channel(s) : 2 channels
Sampling rate : 44.1 kHz
Compression mode : Lossy
Stream size : 2.84 MiB (9%)
Alignment : Split accross interleaves
Interleave, duration : 40 ms (1.00 video frame)
Interleave, preload duratio : 500 ms
Writing library : LAME3.99r
Encoding settings : -m s -V 4 -q 2 -lowpass 17 -b 128

Релиз от:



Скачать книги и аудио книги через торрент


Вернуться к началу
 Профиль Отправить личное сообщение  
 
   Похожие торренты   Автор   Торрент   Размер 
В этой теме нет новых непрочитанных сообщений. Маша и медведь: Вот как бывает [74] [Мультфильм, короткометражка, комедия, семейный, 2018] WEBRip 1080p

salma3

0 | 0

194.49 МБ

В этой теме нет новых непрочитанных сообщений. Маша и медведь: Есть контакт! [65] [сказка, детский, семейный, 2017] WEB-DL 720p

salma3

309 | 23

112.22 МБ

В этой теме нет новых непрочитанных сообщений. Маша и медведь: Есть контакт! [65] [сказка, детский, семейный, 2017] WEB-DLRip

salma3

733 | 60

95.99 МБ

В этой теме нет новых непрочитанных сообщений. Маша и медведь: Три Машкетёра [64] [Мультсериал, сказка, детский, семейный, 2017] WEB-DLRip

salma3

157 | 8

128.1 МБ

В этой теме нет новых непрочитанных сообщений. Маша и медведь: Машины песенки [04х01-05] [Мультсериал, компьютерная анимация, 2018-2019] WEB-DLRip

salma3

0 | 0

394.9 МБ

В этой теме нет новых непрочитанных сообщений. Мама Маша [01-02 из 02] [Криминал, мелодрама, драма, 2019] WEBRip-AVC

salma3

9 | 2

2.26 ГБ

В этой теме нет новых непрочитанных сообщений. Ганц: О / Gantz: O [мультфильм, фэнтези, боевик, ужасы, 2016] WEBRip, Mvo

salma3

2483 | 181

1.37 ГБ


Начать новую тему Ответить на тему  [ 1 сообщение ] 




Для Мосгорсуда, Роскомнадзора и рекламодателей:: mosgorsud-torrent[собачка]yandex.ru
cron