Торрент файл
скачать торрент магнет ссылка Добавлен: 27 янв 2017, 19:02
Размер: 20.33 ГБ
Сидеров: 55
Личеров: 38
Автор

СообщениеДобавлено: 27 янв 2017, 19:02 

Не в сети
Дата регистрации:
28 сен 2016, 18:10
Спасибо: 213 / 0
Сообщения: 1999
Название: Тролли
Оригинальное название: Trolls
Год выхода: 2016
Жанр: Мультфильм, мюзикл, фэнтези, комедия, приключения, семейный
Режиссер: Майк Митчелл, Уолт Дорн
В ролях: Анна Кендрик, Зои Дешанель, Джастин Тимберлэйк, Кристин Барански, Джеффри Тэмбор, Кристофер Минц-Плассе, Джеймс Корден, Кунал Найяр, Гвен Стефани, Расселл Брэнд
О фильме:
Отправляясь в увлекательное приключение, которое заведет ее далеко от привычного ей мира, Розочка объединяет усилия с самым мрачным троллем на свете по имени Цветан для достижения успеха в своей смелой миссии спасти ее друзей из тисков зловещих бергенов и их лидера, короля Хрящ Старший. Невероятные приключения Розочки проверят ее силу, покажут ее истинную суть и бросят вызов ее способности ударяться в пение в любой момент.

Страна: США
Студия: DreamWorks Animation
Продолжительность: 01:32:26
Перевод: Дублированный | iTunes
Файл
Качество: BDRemux 1080p
Видео: MPEG-4 AVC, 1920x1080, 26.6 Мbit/s, 23.976 fps
Звук:
Аудио #01: 48 kHz, AC3, 5.1, 384 Kbps | Дублированный | iTunes |
Аудио #02: 48 kHz, DTS-HD MA, 7.1, 4467 kbps | Оригинал |
Субтитры: Английские
General
Unique ID : 224205249928283979350008063854054406726 (0xA8AC5C469EA29B3099C3E0ADC806FA46)
Complete name : F:VideoTrolls.2016.BDREMUX.1080p.ExKinoRay.mkv
Format : Matroska
Format version : Version 4 / Version 2
File size : 20.3 GiB
Duration : 1 h 32 min
Overall bit rate mode : Variable
Overall bit rate : 31.5 Mb/s
Encoded date : UTC 2017-01-26 12:00:03
Writing application : mkvmerge v8.3.0 ('Over the Horizon') 64bit
Writing library : libebml v1.3.1 + libmatroska v1.4.2
Video
ID : 1
Format : AVC
Format/Info : Advanced Video Codec
Format profile : High@L4.1
Format settings, CABAC : Yes
Format settings, ReFrames : 4 frames
Codec ID : V_MPEG4/ISO/AVC
Duration : 1 h 32 min
Bit rate mode : Variable
Bit rate : 26.6 Mb/s
Maximum bit rate : 33.0 Mb/s
Width : 1 920 pixels
Height : 1 080 pixels
Display aspect ratio : 16:9
Frame rate mode : Constant
Frame rate : 23.976 (23976/1000) FPS
Original frame rate : 23.976 (24000/1001) FPS
Color space : YUV
Chroma subsampling : 4:2:0
Bit depth : 8 bits
Scan type : Progressive
Bits/(Pixel*Frame) : 0.535
Stream size : 17.2 GiB (85%)
Language : English
Default : Yes
Forced : No
Audio #1
ID : 2
Format : AC-3
Format/Info : Audio Coding 3
Mode extension : CM (complete main)
Format settings, Endianness : Big
Codec ID : A_AC3
Duration : 1 h 32 min
Bit rate mode : Constant
Bit rate : 384 kb/s
Channel(s) : 6 channels
Channel positions : Front: L C R, Side: L R, LFE
Sampling rate : 48.0 kHz
Frame rate : 31.250 FPS (1536 spf)
Bit depth : 16 bits
Compression mode : Lossy
Stream size : 254 MiB (1%)
Title : iTunes
Language : Russian
Default : Yes
Forced : No
Audio #2
ID : 3
Format : DTS
Format/Info : Digital Theater Systems
Format profile : MA / ES Matrix / Core
Mode : 16
Format settings, Endianness : Big
Codec ID : A_DTS
Duration : 1 h 32 min
Bit rate mode : Variable / Constant / Constant
Bit rate : 4 467 kb/s / 1 509 kb/s / 1 509 kb/s
Channel(s) : 8 channels / 7 channels / 6 channels
Channel positions : Front: L C R, Side: L R, Back: L R, LFE / Front: L C R, Side: L R, Back: C, LFE / Front: L C R, Side: L R, LFE
Sampling rate : 48.0 kHz
Frame rate : 93.750 FPS (512 spf)
Bit depth : 24 bits
Compression mode : Lossless / Lossy / Lossy
Stream size : 2.88 GiB (14%)
Title : Original
Language : English
Default : No
Forced : No
Text
ID : 4
Format : UTF-8
Codec ID : S_TEXT/UTF8
Codec ID/Info : UTF-8 Plain Text
Duration : 1 h 23 min
Bit rate : 65 b/s
Count of elements : 1377
Stream size : 40.0 KiB (0%)
Title : Full
Language : English
Default : No
Forced : No
Menu
00:00:00.000 : en:Chapter 1
00:02:20.473 : en:Chapter 2
00:06:22.924 : en:Chapter 3
00:10:42.641 : en:Chapter 4
00:13:26.597 : en:Chapter 5
00:18:34.363 : en:Chapter 6
00:22:12.789 : en:Chapter 7
00:25:41.081 : en:Chapter 8
00:28:53.731 : en:Chapter 9
00:32:55.097 : en:Chapter 10
00:36:33.107 : en:Chapter 11
00:40:56.787 : en:Chapter 12
00:44:21.658 : en:Chapter 13
00:47:27.969 : en:Chapter 14
00:51:27.083 : en:Chapter 15
00:55:45.675 : en:Chapter 16
00:59:58.761 : en:Chapter 17
01:03:17.084 : en:Chapter 18
01:05:17.663 : en:Chapter 19
01:07:56.530 : en:Chapter 20
01:10:25.262 : en:Chapter 21
01:13:31.656 : en:Chapter 22
01:16:21.242 : en:Chapter 23
01:21:44.732 : en:Chapter 24


Релиз от: Автор релиза:




реклама партнёра


Вернуться к началу
 Профиль Отправить личное сообщение  
 
   Похожие торренты   Автор   Торрент   Размер 
В этой теме нет новых непрочитанных сообщений. Тролли / Trolls (мультфильм, мюзикл, фэнтези, комедия, приключения, семейный, 2016) BDRip от ExKinoRay | iTunes

marya111

190 | 47

1.42 ГБ

В этой теме нет новых непрочитанных сообщений. Тролли / Trolls (мультфильм, мюзикл, фэнтези, комедия, приключения, семейный, 2016) WEB-DLRip от Scarabey | iTunes

marya111

6585 | 946

1.45 ГБ

В этой теме нет новых непрочитанных сообщений. Тролли / Trolls (мультфильм, мюзикл, фэнтези, комедия, приключения, семейный, 2016) BDRip-AVC от R.G.Resident | iTunes

marya111

234 | 37

2.11 ГБ

В этой теме нет новых непрочитанных сообщений. Тролли / Trolls (мультфильм, мюзикл, фэнтези, 2016) BDRip HEVC 720p | iTunes

marya111

177 | 65

1.96 ГБ

В этой теме нет новых непрочитанных сообщений. Тролли / Trolls [Мультфильм, мюзикл, фэнтези, 2016] BDRip 1080p, Dub+Sub [Лицензия]

salma3

62 | 10

10.5 ГБ

В этой теме нет новых непрочитанных сообщений. Тролли / Trolls [Мультфильм, мюзикл, фэнтези, 2016] BDRip, Dub [Лицензия]

salma3

579 | 86

1.46 ГБ

В этой теме нет новых непрочитанных сообщений. Тролли / Trolls [Мультфильм, мюзикл, фэнтези, 2016] BDRip 720p, Dub+Sub [Лицензия]

salma3

70 | 15

5.01 ГБ


Начать новую тему Ответить на тему  [ 1 сообщение ] 




Для Мосгорсуда, Роскомнадзора и рекламодателей:: mosgorsud-torrent[собачка]yandex.ru
cron