Торрент файл
скачать торрент магнет ссылка Добавлен: 27 янв 2017, 19:01
Размер: 11.96 ГБ
Сидеров: 0
Личеров: 1
Автор

СообщениеДобавлено: 27 янв 2017, 19:01 

Не в сети
Дата регистрации:
28 сен 2016, 18:10
Спасибо: 205 / 0
Сообщения: 2003

Информация о фильме
Название: Маленький зоомагазин
Оригинальное название: Littlest Pet Shop
Год выхода: 2012-2013
Страна: США, Канада, DHX Media, Hasbro Studios
Жанр: Мультсериал, комедия, приключения, детский, семейный
Сезон: 1
Продолжительность: 26 х ~ 00:22:01
Перевод: Профессиональный дублированный (Карусель)
Режиссеры: Joel Dickie, Даллас Паркер, Steven Garcia
Роли озвучивали: Эшли Болл, Сэм Винсент, Питер Нью, Кайл Райдаут, Табита Сен-Жермен, Кира Тозер, Николь Оливер, Жослин Ловен, Кэтлин Барр, Шеннон Чан-Кент, ...
Роли дублировали: Денис Некрасов, Евгений Вальц, Ольга Шорохова, Ольга Голованова, Елена Чебатуркина, ...
О фильме: Хотели бы вы уметь разговаривать с любимыми животными? Девочка Блайс открыла в себе такие удивительные способности! Блайс с отцом переезжает в городскую квартиру прямо над зоомагазином, в котором обитают разные виды животных, такие как панда, собака, ёж, ящерица-геккон, скунс и даже мангуст. Приключения начинаются, когда Блайс открывает в себе необычный дар — она может разговаривать с животными. Героиня узнаёт, что каждому из зверей (даже самому маленькому) присущ ярко выраженный характер и уникальные способности. Когда друзья собираются вместе, получается шумная компания, которая любит попеть и потанцевать. С тех пор, как Блайс и животные нашли общий язык, они всё свободное время проводят вместе и у них появляется общая цель — помешать большому зоомагазину конкурентов вытеснить из бизнеса магазин маленьких зверушек.
Сезон 1 (10 ноября 2012 - 27 апреля 2013)
s1e01. Большое приключение Блайс. Ч-1
s1e02. Большое приключение Блайс. Ч-2
s1e03. День сплошных неудач
s1e04. Свободу Гейл!
s1e05. Монетку за улыбку
s1e06. Не твой цвет
s1e07. Рассел решил повеселиться
s1e08. Блайс влюбилась
s1e09. Застрявший ящик
s1e10. Приступ чистоты
s1e11. Книжки и обложки
s1e12. Ящерица, которая умеет танцевать
s1e13. Свет, камера, мангуст!
s1e14. Перемена мест
s1e15. Под сливочным кремом
s1e16. Сладкий фургон
s1e17. Папа-вертолёт
s1e18. Что скрывается в тесте_
s1e19. Что вы сказали_
s1e20. Кондитеры и мошенники
s1e21. Терьеры и тиары
s1e22. Удачи!
s1e23. За закрытой дверью
s1e24. Заклятые друзья
s1e25. Проект Блайс
s1e26. Летняя грусть



Доп. информация:
Официальный сайт / Семпл


Файл
Формат: MP4
Качество: WEB-DLRip 1080p
Видео: MPEG4-AVC, 1920x1080 (16:9), ~ 2 790 Kbps, 23.976 fps
Звук: 48.0 KHz, AAC-LC 2.0, 192 Kbps
Субтитры: нет
s1e06. Не твой цвет. Full-HD-merci-.mp4
Format : MPEG-4
Format profile : Base Media
Codec ID : isom (isom/mp42)
File size : 470 MiB
Duration : 22 min 1 s
Overall bit rate mode : Variable
Overall bit rate : 2 988 kb/s
Encoded date : UTC 2017-01-22 01:02:27
Tagged date : UTC 2017-01-22 01:02:27
Video
ID : 1
Format : AVC
Format/Info : Advanced Video Codec
Format profile : High@L4
Format settings, CABAC : Yes
Format settings, ReFrames : 2 frames
Codec ID : avc1
Codec ID/Info : Advanced Video Coding
Duration : 22 min 1 s
Source duration : 22 min 1 s
Bit rate : 2 790 kb/s
Width : 1 920 pixels
Height : 1 080 pixels
Display aspect ratio : 16:9
Frame rate mode : Constant
Frame rate : 23.976 (23976/1000) FPS
Color space : YUV
Chroma subsampling : 4:2:0
Bit depth : 8 bits
Scan type : Progressive
Bits/(Pixel*Frame) : 0.056
Stream size : 439 MiB (93%)
Source stream size : 439 MiB (93%)
Language : English
Encoded date : UTC 2017-01-22 01:02:27
Tagged date : UTC 2017-01-22 01:02:27
Color range : Limited
Color primaries : BT.709
Transfer characteristics : BT.709
Matrix coefficients : BT.709
mdhd_Duration : 1321028
Audio
ID : 2
Format : AAC
Format/Info : Advanced Audio Codec
Format profile : LC
Codec ID : 40
Duration : 22 min 1 s
Duration_FirstFrame : -16 ms
Bit rate mode : Variable
Bit rate : 192 kb/s
Channel(s) : 2 channels
Channel positions : Front: L R
Sampling rate : 48.0 kHz
Frame rate : 46.875 FPS (1024 spf)
Compression mode : Lossy
Stream size : 30.2 MiB (6%)
Language : English
Encoded date : UTC 2017-01-22 01:02:27
Tagged date : UTC 2017-01-22 01:02:27
mdhd_Duration : 1321072


Релиз от:
Автор релиза: /




реклама партнёра


Вернуться к началу
 Профиль Отправить личное сообщение  
 
   Похожие торренты   Автор   Торрент   Размер 
В этой теме нет новых непрочитанных сообщений. Маленький зоомагазин [s01] (2012-2013) WEB-DLRip от ExKinoRay | D (Карусель)

marya111

5 | 1

5.92 ГБ

В этой теме нет новых непрочитанных сообщений. Маленький зоомагазин [s02] (2013-2014) WEB-DLRip 1080p от ExKinoRay | D (Карусель)

marya111

0 | 3

11.95 ГБ

В этой теме нет новых непрочитанных сообщений. Маленький зоомагазин [s01] (2012-2013) WEB-DLRip 720p от ExKinoRay | D (Карусель)

marya111

3 | 0

6.74 ГБ

В этой теме нет новых непрочитанных сообщений. Маленький зоомагазин [s02] (2014-2013) WEB-DLRip от ExKinoRay | D (Карусель)

marya111

5 | 0

5.92 ГБ

В этой теме нет новых непрочитанных сообщений. Маленький зоомагазин [s02] (2013-2014) WEB-DLRip 720p от ExKinoRay | D (Карусель)

marya111

3 | 0

6.71 ГБ

В этой теме нет новых непрочитанных сообщений. Марин и его друзья. Подводные истории / Bubble Marin [s01 + Бонусы] (Мультсериал, мультфильм, приключения, детский, 2014-2015) WEB-DLRip 1080p от ExKinoRay | D (Карусель)

marya111

25 | 6

13.59 ГБ

В этой теме нет новых непрочитанных сообщений. Тима и Тома [01-41] (2015-2016) WEB-DLRip 1080p от ExKinoRay

marya111

11 | 1

2.95 ГБ


Начать новую тему Ответить на тему  [ 1 сообщение ] 




Для Мосгорсуда, Роскомнадзора и рекламодателей:: mosgorsud-torrent[собачка]yandex.ru