Торрент файл
скачать торрент магнет ссылка Добавлен: 27 янв 2017, 19:01
Размер: 3.16 ГБ
Сидеров: 14
Личеров: 9
Автор

СообщениеДобавлено: 27 янв 2017, 19:01 

Не в сети
Дата регистрации:
28 сен 2016, 18:10
Спасибо: 205 / 0
Сообщения: 2003

Информация о фильме
Название: Ми-ми-мишки
Год выхода: 2015-2016
Страна: Россия, студия Паровоз
Жанр: Мультсериал, детский, семейный, приключения
Продолжительность: 72 х ~ 00:05:30
Язык: русский
Режиссеры: Алексей Миронов, Артур Толстобров
Роли озвучивали: Полина Кутепова, Наталия Медведева, Дарья Мазанова, ...
О фильме: Анимационный сериал «Ми-ми-мишки» в увлекательной форме рассказывает маленьким зрителям о забавных приключениях двух веселых медвежат – бурого медвежонка Иннокентия (Кешки) и его белого друга по имени Белая Тучка. Медвежата заняты своими обычными и не совсем обычными делами – собирают ягоды и грибы, ловят рыбу, читают книжки, летают на Луну. И неизбежно попадают в забавные, и, казалось бы, безвыходные ситуации.
01. Звездная история
02. Грибы и листья
03. Фотоохота
04. Путешествие
05. Лучшая напоминалка
06. Несовременная еда
07. Борьба за урожай
08. Как лечить деревья
09. Домовой
10. Бессонница
11. Глобальное потепление
12. Огородники
13. Медовая история
14. Прогноз погоды
15. Змей на дереве
16. Финишная прямая
17. Пиратская история
18. Путешествие к звёздам
19. Победители дракона
20. Экспедиция на север
21. Больше не надо
22. Лучшее место в мире
23. Цыпа и динозавры
24. Фокусы с разоблачением
25. Настоящий Ниндзя
26. Нежданные гости
27. Необитаемый остров
28. Гол
29. Мишка-невидимка
30. Следствие ведут мишки
31. По своим правилам
32. Тучкина высота
33. Пещера, полная ловушек
34. Супер Мишки
35. В поход
36. Неуловимый Джо
37. Новогодний маскарад
38. Песня для Лисички
39. Умный дом
40. Сказка про репку
41. Мысли вслух
42. Маленькое приключение
43. Парк развлечений
44. Жемчужина севера
45. Кеша FM
46. Лучший друг Лисички
47. Богатый улов
48. Мишки на льду
49. Мой друг велосипед
50. Мишки в цирке
51. Баллада о рыцарях
52. Поиграем завтра
53. Зубная фея
54. Идеальные друзья
55. Проще простого
56. Вечный день
57. День рождения Лисички
58. Споры о красоте
59. Страшилки
60. Талисман удачи
61. Мне бы в небо
62. На связи
63. Сюрприз
64. Хорошие манеры
65. 5 минут назад
66. Игровой автомат
67. Слонопотам
68. Чистая правда
69. Розовые очки
70. Цыпа-почтальон
99. Контакт
100. Музей



Доп. информация:
Семпл


Файл
Формат: MP4
Качество: WEB-DLRip 720p
Видео: MPEG4-AVC, 1280x720 (16:9), ~ 1 107 Kbps, 25.000 fps
Звук: 44.1 KHz, AAC-LC 2.0, 126 Kbps
Субтитры: нет
43. Парк развлечений. HD-merci-.mp4
Format : MPEG-4
Format profile : Base Media / Version 2
Codec ID : mp42 (mp42/isom)
File size : 48.7 MiB
Duration : 5 min 30 s
Overall bit rate mode : Variable
Overall bit rate : 1 238 kb/s
Encoded date : UTC 2016-08-06 07:18:22
Tagged date : UTC 2016-08-06 07:18:22
gsst : 0
gstd : 349112
Video
ID : 1
Format : AVC
Format/Info : Advanced Video Codec
Format profile : Main@L3.1
Format settings, CABAC : Yes
Format settings, ReFrames : 3 frames
Codec ID : avc1
Codec ID/Info : Advanced Video Coding
Duration : 5 min 30 s
Bit rate : 1 107 kb/s
Width : 1 280 pixels
Height : 720 pixels
Display aspect ratio : 16:9
Frame rate mode : Constant
Frame rate : 25.000 FPS
Color space : YUV
Chroma subsampling : 4:2:0
Bit depth : 8 bits
Scan type : Progressive
Bits/(Pixel*Frame) : 0.048
Stream size : 43.6 MiB (89%)
Language : English
Encoded date : UTC 2016-08-06 07:18:22
Tagged date : UTC 2016-08-06 07:18:22
Color range : Limited
Color primaries : BT.709
Transfer characteristics : BT.709
Matrix coefficients : BT.709
Audio
ID : 2
Format : AAC
Format/Info : Advanced Audio Codec
Format profile : LC
Codec ID : 40
Duration : 5 min 30 s
Bit rate mode : Variable
Bit rate : 126 kb/s
Channel(s) : 2 channels
Channel positions : Front: L R
Sampling rate : 44.1 kHz
Frame rate : 43.066 FPS (1024 spf)
Compression mode : Lossy
Stream size : 4.94 MiB (10%)
Language : English
Encoded date : UTC 2016-08-06 07:18:22
Tagged date : UTC 2016-08-06 07:18:22
mdhd_Duration : 330002


Релиз от:
Автор релиза: /




реклама партнёра


Вернуться к началу
 Профиль Отправить личное сообщение  
 
   Похожие торренты   Автор   Торрент   Размер 
В этой теме нет новых непрочитанных сообщений. Ми-ми-мишки [01x01-70,99,100 из 104] (2015-2016) WEB-DLRip от ExKinoRay

marya111

22 | 9

3.81 ГБ

В этой теме нет новых непрочитанных сообщений. Ми-ми-мишки [01x01-70,99,100 из 104] (2015-2016) WEB-DLRip 1080p от ExKinoRay

marya111

18 | 5

5.58 ГБ

В этой теме нет новых непрочитанных сообщений. Ангел Бэби [01x01-16,02x17-23 из ?] (Мультсериал, рисованный, детский, обучающий, 2015-2016) WEB-DLRip от ExKinoRay

marya111

0 | 0

1.96 ГБ

В этой теме нет новых непрочитанных сообщений. Тима и Тома [01-41] (2015-2016) WEB-DLRip 720p от ExKinoRay

marya111

7 | 1

1.67 ГБ

В этой теме нет новых непрочитанных сообщений. Три кота [01-39] ( Мультсериал, детский, приключения, комедия, 2015-2016) WEB-DLRip 720p от ExKinoRay

marya111

78 | 13

1.6 ГБ

В этой теме нет новых непрочитанных сообщений. Три кота [01-38] (Мультсериал, детский, приключения, комедия, 2015-2016) WEB-DLRip 720p от ExKinoRay

marya111

120 | 37

1.55 ГБ

В этой теме нет новых непрочитанных сообщений. Колобанга. Только для пользователей интернета [s01,s02] (Мультсериал, приключения, детектив, детский, 2015-2016) WEB-DLRip 720p от ExKinoRay

marya111

27 | 22

3.26 ГБ


Начать новую тему Ответить на тему  [ 1 сообщение ] 




Для Мосгорсуда, Роскомнадзора и рекламодателей:: mosgorsud-torrent[собачка]yandex.ru