Торрент файл
скачать торрент магнет ссылка Добавлен: 27 янв 2017, 19:00
Размер: 2.62 ГБ
Сидеров: 10
Личеров: 0
Автор

СообщениеДобавлено: 27 янв 2017, 19:00 

Не в сети
Дата регистрации:
28 сен 2016, 18:10
Спасибо: 204 / 0
Сообщения: 2003
Название: Дамбо
Оригинальное название: Dumbo


Год выпуска: 1941
Страна: США
Жанр: семейный, мультфильм, музыка
Продолжительность: 01:03:57
Перевод: Дублированный, Двухголосый закадровый [П.Гланц и Т.Казакова]
Субтитры: Russian, English


В ролях: Джеймс Баскетт, Херман Бинг, Билли Блэтчер, Эдвард Брофи, Джим Кармайкл, Клифф Эдвардс, Верна Фелтон, Noreen Gammill, Эдди Холден, Стерлинг Холлоуэй
Режиссёр: Бен Шарпстин


Описание: Классическая постановка Уолта Диснея. Один из самых очаровательных и всеми любимых мультфильмов - история маленького слоненка с очень большими ушами, который научился летать. Открыть удивительный талант и поверить в себя Дамбо помог неунывающий мышонок Тимоти, который стал ему настоящим другом… Так неразговорчивый и неуклюжий слоненок превратился в величайшую звезду цирка.


Качество: BDRip 1080p
Формат: MKV
Видео кодек: x265
Аудио кодек: AC3, DTS
Видео: 1440x1080, 23,976 fps, HEVC, ~4150 kbps, 10bit
Аудио: Rus, 48 kHz/16-bit, AC3 2.0, ~192 kbps | Дубляж
Аудио: Rus, 48 kHz/24-bit, DTS 5.1, ~756 kbps | П.Гланц и Т.Казакова
Аудио: Eng, 48 kHz/24-bit, DTS 5.1, ~756 kbps | Оригинал
Навигация по главам: Присутствует


Автор рипа: Alex_A









- H.265/HEVC (High Efficiency Video Coding) - это новый стандарт кодирования видео.
- Стандарт H.265/HEVC является логическим продолжением стандарта H.264/AVC (Advanced Video Coding), и характеризуется более эффективными алгоритмами сжатия, а также поддержкой высокого разрешения вплоть до 8K UHD (8192x4320). Первая версия стандарта H.265 была опубликована в начале 2013 года.
- Рипы в фомате HEVC, в настоящее время не поддерживается большинством аппаратных проигрывателей.
- Для корректного воспроизведения может потребоваться обновление ПО.
- Владельцам несовместимого железа просьба не беспокоить, есть альтернативные релизы.

Общее
Уникальный идентификатор : 173315068237157156372772379629095753220 (0x82634499E359726BB51688469BD01604)
Полное имя : E:HEVCDumbo (1940)Dumbo.1940.1080p_HEVCCLUB.mkv
Формат : Matroska
Версия формата : Version 4 / Version 2
Размер файла : 2,62 Гбайт
Продолжительность : 1 ч. 3 м.
Общий поток : 5858 Кбит/сек
Название фильма : Dumbo (1941) - HEVC.CLUB
Дата кодирования : UTC 2017-01-09 01:12:20
Программа кодирования : mkvmerge v9.7.0 ('Numbers') 64bit
Библиотека кодирования : libebml v1.3.4 + libmatroska v1.4.5
Обложка : Yes
Attachments : cover.jpg
Видео
Идентификатор : 1
Формат : HEVC
Формат/Информация : High Efficiency Video Coding
Профиль формата : Main 10@L4.1@High
Идентификатор кодека : V_MPEGH/ISO/HEVC
Продолжительность : 1 ч. 3 м.
Битрейт : 4150 Кбит/сек
Ширина : 1440 пикселей
Высота : 1080 пикселей
Соотношение сторон : 4:3
Режим частоты кадров : Постоянный
Частота кадров : 23,976 (24000/1001) кадра/сек
Цветовое пространство : YUV
Субдискретизация насыщенности : 4:2:0
Битовая глубина : 10 бит
Бит/(Пиксели*Кадры) : 0.111
Размер потока : 1,85 Гбайт (71%)
Заголовок : HEVC.CLUB
Библиотека кодирования : x265 2.1+74-e5759d587ae2:[Windows][GCC 6.2.0][64 bit] 10bit
Настройки программы : cpuid=1173503 / frame-threads=3 / numa-pools=8 / wpp / no-pmode / no-pme / no-psnr / ssim / log-level=2 / input-csp=1 / input-res=1440x1080 / interlace=0 / total-frames=0 / level-idc=41 / high-tier=1 / uhd-bd=0 / ref=5 / no-allow-non-conformance / repeat-headers / annexb / aud / hrd / info / hash=0 / no-temporal-layers / open-gop / min-keyint=23 / keyint=250 / bframes=8 / b-adapt=2 / b-pyramid / bframe-bias=0 / rc-lookahead=60 / lookahead-slices=1 / scenecut=40 / no-intra-refresh / ctu=32 / min-cu-size=8 / no-rect / no-amp / max-tu-size=32 / tu-inter-depth=2 / tu-intra-depth=2 / limit-tu=0 / rdoq-level=1 / signhide / no-tskip / nr-intra=0 / nr-inter=0 / no-constrained-intra / no-strong-intra-smoothing / max-merge=2 / limit-refs=3 / no-limit-modes / me=1 / subme=5 / merange=60 / temporal-mvp / weightp / weightb / no-analyze-src-pics / deblock=-3:-3 / no-sao / no-sao-non-deblock / rd=4 / no-early-skip / no-rskip / no-fast-intra / no-tskip-fast / no-cu-lossless / no-b-intra / rdpenalty=0 / psy-rd=1.70 / psy-rdoq=2.50 / no-rd-refine / analysis-mode=0 / no-lossless / cbqpoffs=0 / crqpoffs=0 / rc=crf / crf=22.0 / qcomp=0.90 / qpstep=6 / stats-write=0 / stats-read=0 / vbv-maxrate=50000 / vbv-bufsize=50000 / vbv-init=0.9 / crf-max=0.0 / crf-min=0.0 / ipratio=1.50 / pbratio=1.00 / aq-mode=1 / aq-strength=0.50 / no-cutree / zone-count=0 / no-strict-cbr / qg-size=32 / no-rc-grain / qpmax=69 / qpmin=0 / sar=1 / overscan=0 / videoformat=5 / range=0 / colorprim=2 / transfer=2 / colormatrix=1 / chromaloc=0 / display-window=0 / max-cll=0,0 / min-luma=0 / max-luma=1023 / log2-max-poc-lsb=8 / vui-timing-info / vui-hrd-info / slices=1 / opt-qp-pps / opt-ref-list-length-pps / no-multi-pass-opt-rps / scenecut-bias=0.05
Default : Да
Forced : Да
Цветовой диапазон : Limited
Коэффициенты матрицы : BT.709
Аудио #1
Идентификатор : 2
Формат : AC-3
Формат/Информация : Audio Coding 3
Расширение режима : CM (complete main)
Параметр Endianness формата : Big
Идентификатор кодека : A_AC3
Продолжительность : 1 ч. 3 м.
Вид битрейта : Постоянный
Битрейт : 192 Кбит/сек
Каналы : 2 канала
Расположение каналов : Front: L R
Частота : 48,0 КГц
Частота кадров : 31,250 кадров/сек (1536 spf)
Битовая глубина : 16 бит
Метод сжатия : С потерями
Размер потока : 87,8 Мбайт (3%)
Заголовок : Dub
Язык : Russian
Default : Да
Forced : Нет
Аудио #2
Идентификатор : 3
Формат : DTS
Формат/Информация : Digital Theater Systems
Режим : 16
Параметр Endianness формата : Big
Идентификатор кодека : A_DTS
Продолжительность : 1 ч. 3 м.
Вид битрейта : Постоянный
Битрейт : 756 Кбит/сек
Каналы : 6 каналов
Расположение каналов : Front: L C R, Side: L R, LFE
Частота : 48,0 КГц
Частота кадров : 93,750 кадра/сек (512 spf)
Битовая глубина : 24 бит
Метод сжатия : С потерями
Размер потока : 346 Мбайт (13%)
Заголовок : DVO
Язык : Russian
Default : Нет
Forced : Нет
Аудио #3
Идентификатор : 4
Формат : DTS
Формат/Информация : Digital Theater Systems
Режим : 16
Параметр Endianness формата : Big
Идентификатор кодека : A_DTS
Продолжительность : 1 ч. 3 м.
Вид битрейта : Постоянный
Битрейт : 756 Кбит/сек
Каналы : 6 каналов
Расположение каналов : Front: L C R, Side: L R, LFE
Частота : 48,0 КГц
Частота кадров : 93,750 кадра/сек (512 spf)
Битовая глубина : 24 бит
Метод сжатия : С потерями
Размер потока : 346 Мбайт (13%)
Заголовок : Original
Язык : English
Default : Нет
Forced : Нет
Текст #1
Идентификатор : 5
Формат : UTF-8
Идентификатор кодека : S_TEXT/UTF8
Идентификатор кодека/Информация : UTF-8 Plain Text
Продолжительность : 1 ч. 3 м.
Битрейт : 62 бит/сек
Count of elements : 667
Размер потока : 29,0 Кбайт (0%)
Заголовок : Full
Язык : Russian
Default : Нет
Forced : Нет
Текст #2
Идентификатор : 6
Формат : UTF-8
Идентификатор кодека : S_TEXT/UTF8
Идентификатор кодека/Информация : UTF-8 Plain Text
Продолжительность : 1 ч. 2 м.
Битрейт : 50 бит/сек
Count of elements : 662
Размер потока : 22,8 Кбайт (0%)
Заголовок : Full
Язык : English
Default : Нет
Forced : Нет
Меню
00:00:00.000 : en:Chapter 1
00:01:19.871 : en:Chapter 2
00:04:14.921 : en:Chapter 3
00:06:34.352 : en:Chapter 4
00:12:49.727 : en:Chapter 5
00:17:01.437 : en:Chapter 6
00:20:08.040 : en:Chapter 7
00:23:32.702 : en:Chapter 8
00:28:30.542 : en:Chapter 9
00:35:19.534 : en:Chapter 10
00:38:11.914 : en:Chapter 11
00:42:34.510 : en:Chapter 12
00:46:07.723 : en:Chapter 13
00:51:00.682 : en:Chapter 14
00:54:42.278 : en:Chapter 15
00:58:40.350 : en:Chapter 16
01:00:19.449 : en:Chapter 17
01:03:55.831 : en:Chapter 18






реклама партнёра


Вернуться к началу
 Профиль Отправить личное сообщение  
 
   Похожие торренты   Автор   Торрент   Размер 
В этой теме нет новых непрочитанных сообщений. Дамбо / Dumbo (1941) BDRip HEVC 720p | D, P2

marya111

5 | 0

1.64 ГБ

В этой теме нет новых непрочитанных сообщений. Изгой / Cast Away [Драма, приключения, 2000] BDRip HEVC 1080p, Dub

salma3

28 | 7

11.47 ГБ

В этой теме нет новых непрочитанных сообщений. Солдат / Soldier [фантастика, боевик, драма, 1998] BDRip-HEVC 1080p, Dub

salma3

130 | 33

4.19 ГБ

В этой теме нет новых непрочитанных сообщений. Фантазм 5 / Phantasm: Ravager [фантастика, триллер, 2016] BDRip-HEVC 1080p, Mvo

salma3

127 | 54

6.35 ГБ

В этой теме нет новых непрочитанных сообщений. Мушкетеры / The Three Musketeers [боевик, приключения, 2011] BDRip 1080p HEVC, Dub [3D-Video]

salma3

20 | 23

9.21 ГБ

В этой теме нет новых непрочитанных сообщений. Морской бой / Battleship [фантастика, боевик, триллер, приключения, 2012] BDRip-HEVC 1080p, Dub

salma3

122 | 41

5.98 ГБ

В этой теме нет новых непрочитанных сообщений. Реальная любовь / Love Actually [мелодрама, комедия, драма, 2003] BDRip HEVC 1080p, Dub

salma3

28 | 25

10.24 ГБ


Начать новую тему Ответить на тему  [ 1 сообщение ] 




Для Мосгорсуда, Роскомнадзора и рекламодателей:: mosgorsud-torrent[собачка]yandex.ru