Торрент файл
скачать торрент магнет ссылка Добавлен: 27 янв 2017, 19:00
Размер: 156.49 МБ
Сидеров: 0
Личеров: 0
Автор

СообщениеДобавлено: 27 янв 2017, 19:00 

Не в сети
Дата регистрации:
28 сен 2016, 18:10
Спасибо: 199 / 0
Сообщения: 2005
Шкатулка с секретом / Box with a Secret (1976) HDTVRip [480p] от SDIncorporation

Информация о фильме
Русское название: Шкатулка с секретом
Оригинальное название: Box with a Secret
Страна: СССР
Год выпуска: 1976
Жанр: Мультфильм
Перевод: Не требуется
Режиссер: Валерий Угаров
Работа над релизом: Nod33Eset(retvil)
StreetDespair
Исходник: ССTV 2016 Год
О фильме:
Музыкальная фантазия на тему сказки В. Одоевского «Городок в табакерке».
Продолжительность: 00:09:45
Качество видео: HDTVRip-480p
Видеокодек: AVC
Формат: MKV
Битрейт видео: ~2000 Kbps
Размер кадра: 632x480
Аудиокодек: AC3
Битрейт аудио: 224 kb/s
Аудио #1: Русский (48 kHz, AC3 Dolby Digital, 2 channels, ~224 kbps) - Оригинал
General
Unique ID : 252996157558008312744524205039989020640 (0xBE55499DE5FB9E4FA57FB87AA3A3D7E0)
Complete name : Box.with.a.Secret.480p-HQ.1976.Russian.SDIncorporation.mkv
Format : Matroska
Format version : Version 4 / Version 2
File size : 156 MiB
Duration : 9 min 45 s
Overall bit rate mode : Variable
Overall bit rate : 2 242 kb/s
Movie name : Box with a Secret [480p-HQ] (1976) © SDIncorporation
Encoded date : UTC 2016-03-18 16:17:53
Writing application : mkvmerge v8.9.0 ('Father Daughter') 64bit
Writing library : libebml v1.3.3 + libmatroska v1.4.4
Video
ID : 1
Format : AVC
Format/Info : Advanced Video Codec
Format profile : Main@L3
Format settings, CABAC : Yes
Format settings, ReFrames : 3 frames
Codec ID : V_MPEG4/ISO/AVC
Duration : 9 min 44 s
Bit rate mode : Variable
Bit rate : 2 021 kb/s
Maximum bit rate : 1 600 kb/s
Width : 632 pixels
Height : 480 pixels
Display aspect ratio : 4:3
Original display aspect rat : 16:9
Frame rate mode : Constant
Frame rate : 25.000 FPS
Standard : NTSC
Color space : YUV
Chroma subsampling : 4:2:0
Bit depth : 8 bits
Scan type : Progressive
Bits/(Pixel*Frame) : 0.266
Stream size : 141 MiB (90%)
Title : Video
Default : Yes
Forced : No
Color range : Limited
Audio
ID : 2
Format : AC-3
Format/Info : Audio Coding 3
Mode extension : CM (complete main)
Format settings, Endianness : Big
Codec ID : A_AC3
Duration : 9 min 45 s
Bit rate mode : Constant
Bit rate : 224 kb/s
Channel(s) : 2 channels
Channel positions : Front: L R
Sampling rate : 48.0 kHz
Frame rate : 31.250 FPS (1536 spf)
Bit depth : 16 bits
Compression mode : Lossy
Stream size : 15.6 MiB (10%)
Title : Russian
Language : Russian
Default : Yes
Forced : No





Время раздачи: С 8:00 до 22:00
Релиз от: ©SDIncorporation




реклама партнёра


Вернуться к началу
 Профиль Отправить личное сообщение  
 
   Похожие торренты   Автор   Торрент   Размер 
В этой теме нет новых непрочитанных сообщений. Шкатулка с секретом / Box with a Secret (1976) HDTVRip 720p от SDIncorporation

marya111

0 | 0

336.66 МБ

В этой теме нет новых непрочитанных сообщений. Ох и Ах / Oh and Ah (1975) HDTVRip-AVC от SDIncorporation

marya111

0 | 0

139.42 МБ

В этой теме нет новых непрочитанных сообщений. Кот в сапогах / Puss in Boots (1968) HDTVRip-AVC от SDIncorporation

marya111

0 | 0

315.19 МБ

В этой теме нет новых непрочитанных сообщений. Бегемот и солнце / Hippo and Sun (1972) HDTVRip-AVC от SDIncorporation

marya111

0 | 0

156 МБ

В этой теме нет новых непрочитанных сообщений. Баранкин, будь человеком! / Barankin, be a man! (1963) HDTVRip-AVC от SDIncorporation

marya111

0 | 0

311.76 МБ

В этой теме нет новых непрочитанных сообщений. Бегемот и солнце / Hippo and Sun (1972) HDTVRip 720p от SDIncorporation

marya111

0 | 0

335.09 МБ

В этой теме нет новых непрочитанных сообщений. Блеф / Bluff Storia Di Truffe E Di Imbroglioni / The Con Artists [комедия, 1976] HDTVRip 720p, Dub+Mvo+Avo

salma3

285 | 14

4.61 ГБ


Начать новую тему Ответить на тему  [ 1 сообщение ] 




Для Мосгорсуда, Роскомнадзора и рекламодателей:: mosgorsud-torrent[собачка]yandex.ru