Торрент файл
скачать торрент магнет ссылка Добавлен: 24 янв 2017, 13:35
Размер: 4.76 ГБ
Сидеров: 23
Личеров: 3
Статус: (salma3)
Автор

СообщениеДобавлено: 24 янв 2017, 13:35 

В сети
Супермодератор
Аватара пользователя
Дата регистрации:
15 фев 2012, 16:44
Возраст: 30
Спасибо: 8112 / 2147
Сообщения: 93409
Год выхода: 1967
Жанр: мультфильм, боевик, комедия
Режиссер: Рэй Гуссенс
Выпущено: Франция, Бельгия
Продолжительность: 01:07:30
Перевод: Профессиональный (многоголосый закадровый)
Роли озвучивали: Роже Карель, Жак Морель, Пьер Торнад, Жак Жуанно, Люсьен Рэмбур, Пьер Трабо, Бернар Лавалетт, Робер Валье, Мишель Пютерфлам, Морис Шевит
[/list]

Сюжет фильма
    Астерикс с друзьями весело живут и не знают, что центурион Фонус Балонус решил узнать секрет таинственной силы, помогающей им побеждать любого врага.
    Шпиону римлян удалось выведать этот секрет, но хитрый друид не дремлет... История никогда не была такой веселой и не доставляла столько удовольствия!


Файл
    Качество: BDRip 1080p (исходник Blu-Ray Disc)
    Формат: MKV
    Видео: 1452x1080, 9710 Кбит/сек, 23,976 кадр/сек, AVC, x264, High@L4.1, 4:3, 0.258 Бит/[Пиксели*Кадры]
    Аудио 1: AC-3, 192 Кбит/сек, 2 канала(ов), 48,0 КГц - Многоголосый закадровый / Русский
    Аудио 2: AC-3, 192 Кбит/сек, 2 канала(ов), 48,0 КГц - Оригинал / Французский
    Субтитры: Русские | Полные, Английские | Полные
    Форсированные субтитры: Нет
    Чаптеры (Главы): Есть



Автор Рипа: Группа:



Format : Matroska
Format version : Version 2
File size : 4.76 GiB
Duration : 1 h 7 min
Overall bit rate : 10.1 Mb/s
Movie name : Astérix le Gaulois.(1967).BDRip.1080p.[envy]
Encoded date : UTC 2017-01-21 08:00:50
Writing application : mkvmerge v5.8.0 ('No Sleep / Pillow') built on Sep 2 2012 15:37:04
Writing library : libebml v1.2.3 + libmatroska v1.3.0
Video
ID : 1
Format : AVC
Format/Info : Advanced Video Codec
Format profile : High@L4.1
Format settings, CABAC : Yes
Format settings, ReFrames : 4 frames
Codec ID : V_MPEG4/ISO/AVC
Duration : 1 h 7 min
Bit rate : 9 710 kb/s
Width : 1 452 pixels
Height : 1 080 pixels
Display aspect ratio : 4:3
Frame rate mode : Constant
Frame rate : 23.976 (24000/1001) FPS
Color space : YUV
Chroma subsampling : 4:2:0
Bit depth : 8 bits
Scan type : Progressive
Bits/(Pixel*Frame) : 0.258
Stream size : 4.48 GiB (94%)
Title : Astérix le Gaulois.(1967).BDRip.1080p.[envy]
Writing library : x264 core 148 r2744 b97ae06
Encoding settings : cabac=1 / ref=4 / deblock=1:0:0 / analyse=0x3:0x133 / me=umh / subme=11 / psy=1 / psy_rd=1.00:0.00 / mixed_ref=1 / me_range=32 / chroma_me=1 / trellis=2 / 8x8dct=1 / cqm=0 / deadzone=21,11 / fast_pskip=0 / chroma_qp_offset=-2 / threads=12 / lookahead_threads=1 / sliced_threads=0 / nr=0 / decimate=1 / interlaced=0 / bluray_compat=0 / constrained_intra=0 / bframes=5 / b_pyramid=2 / b_adapt=2 / b_bias=0 / direct=3 / weightb=1 / open_gop=0 / weightp=2 / keyint=240 / keyint_min=23 / scenecut=40 / intra_refresh=0 / rc=2pass / mbtree=0 / bitrate=9710 / ratetol=2.0 / qcomp=0.60 / qpmin=0 / qpmax=69 / qpstep=4 / cplxblur=20.0 / qblur=0.5 / ip_ratio=1.40 / pb_ratio=1.30 / aq=2:0.70
Language : French
Default : Yes
Forced : No
Audio #1
ID : 2
Format : AC-3
Format/Info : Audio Coding 3
Format profile : Dolby Digital
Mode extension : CM (complete main)
Format settings, Endianness : Big
Codec ID : A_AC3
Duration : 1 h 7 min
Bit rate mode : Constant
Bit rate : 192 kb/s
Channel(s) : 2 channels
Channel positions : Front: L R
Sampling rate : 48.0 kHz
Frame rate : 31.250 FPS (1536 spf)
Compression mode : Lossy
Stream size : 92.7 MiB (2%)
Title : MVO
Language : Russian
Default : Yes
Forced : No
Audio #2
ID : 3
Format : AC-3
Format/Info : Audio Coding 3
Mode extension : CM (complete main)
Format settings, Endianness : Big
Codec ID : A_AC3
Duration : 1 h 7 min
Bit rate mode : Constant
Bit rate : 192 kb/s
Channel(s) : 2 channels
Channel positions : Front: L R
Sampling rate : 48.0 kHz
Frame rate : 31.250 FPS (1536 spf)
Compression mode : Lossy
Stream size : 92.7 MiB (2%)
Title : Fre
Language : French
Default : No
Forced : No
Text #1
ID : 4
Format : UTF-8
Codec ID : S_TEXT/UTF8
Codec ID/Info : UTF-8 Plain Text
Title : Rus full
Language : Russian
Default : No
Forced : No
Text #2
ID : 5
Format : UTF-8
Codec ID : S_TEXT/UTF8
Codec ID/Info : UTF-8 Plain Text
Title : Eng full
Language : English
Default : No
Forced : No
Menu
00:00:00.000 : :Chapter 01
00:08:10.114 : :Chapter 02
00:18:22.559 : :Chapter 03
00:28:51.062 : :Chapter 04
00:38:02.989 : :Chapter 05
00:42:50.442 : :Chapter 06
00:50:47.794 : :Chapter 07
00:59:47.333 : :Chapter 08



_________________
Проголосуй за трекер Открытый торрент трекер - RUS-MEDIA.ORG

Проголосуй Открытый торрент трекер - RUS-MEDIA.ORG


Книжный торрент трекер



Вернуться к началу
 Профиль Отправить личное сообщение  
 
   Похожие торренты   Автор   Торрент   Размер 
В этой теме нет новых непрочитанных сообщений. Астерикс и тайное зелье / Asterix: Le secret de la potion magique [Мультфильм, фэнтези, приключения, 2018] BDRip 1080p, Dub [iTunes]

salma3

0 | 1

7.22 ГБ

В этой теме нет новых непрочитанных сообщений. Астерикс и тайное зелье / Asterix: Le secret de la potion magique [Мультфильм, фэнтези, приключения, 2018] BDRemux 1080p, Dub [iTunes] [3D-Video]

salma3

3 | 1

21.7 ГБ

В этой теме нет новых непрочитанных сообщений. Астерикс и Клеопатра / Asterix et Cleopatre [Мультфильм, приключения, 1968] HDRip, Mvo

salma3

11 | 9

742.83 МБ

В этой теме нет новых непрочитанных сообщений. Астерикс на олимпийских играх / Asterix aux jeux olympiques [Комедия, приключения, семейный, 2008] BDRip 720p, Dub

NTL

2 | 0

4.36 ГБ

В этой теме нет новых непрочитанных сообщений. Казино Рояль / Casino Royale [комедия, 1967] BDRip-HEVC 1080p, Mvo

K15

0 | 0

12.53 ГБ

В этой теме нет новых непрочитанных сообщений. Астерикс и Обеликс против Цезаря / Asterix et Obelix contre Cesar [фэнтези, комедия, приключения, семейный, 1999] BDRip, Dub+Sub

salma3

40 | 16

2.18 ГБ

В этой теме нет новых непрочитанных сообщений. Астерикс и тайное зелье / Astérix: Le secret de la potion magique [Мультфильм, фэнтези, 2018] HDRip, Dub [iTunes]

salma3

1133 | 30

1.46 ГБ


Начать новую тему Ответить на тему  [ 1 сообщение ] 




Для Мосгорсуда, Роскомнадзора и рекламодателей:: mosgorsud-torrent[собачка]yandex.ru
cron