Торрент файл
скачать торрент магнет ссылка Добавлен: 11 янв 2017, 17:11
Размер: 745.03 МБ
Сидеров: 249
Личеров: 10
Автор

СообщениеДобавлено: 11 янв 2017, 17:11 

Не в сети
Дата регистрации:
28 сен 2016, 18:10
Спасибо: 205 / 0
Сообщения: 2003
Информация о фильме
Оригинальное название: Бременские разбойники
Год выпуска: 2016
Жанр: Мультфильм, комедия, приключения, музыка
Режиссер: Алексей Лукьянчиков
Роли озвучивали: Дина Гарипова, Наталья Подольская, Максим Матвеев, Александр Иванов, Владимир Кошевой, Андрей Тартаков, Дмитрий Филимонов, Юлия Яблонская, Игорь Тарадайкин, Анастасия Садовская

О фильме:
Среди высохших рек и выжженных лесов раскинулось Королевство, где не поют птицы, не доются коровы, а люди живут в постоянном страхе и нищете. А все потому, что 18 лет назад в результате дворцового переворота к власти пришли хитрые и жадные Министры. Неповиновение новым законам жестоко карается, и никто не осмеливается перечить Королевской охране. Никто, кроме благородного разбойника Трубин Гуда, который грабит Министров и раздаёт награбленное бедным. А помогают ему в этом его верные друзья: кот Зигмунд, пес Баскервиль, петух Петруччо и ослица Гретхен. В то время как жители Королевства слагают о нём легенды, а Министры готовы отдать за его голову любую награду, сам Трубин Гуд мечтает лишь о том, чтобы вернуть Королевство к прежнему процветанию



Страна: Россия, Украина
Студия: Кинокомпании «Стар Медиа Дистрибьюшн», «Централ Партнершип», «Ukrainian Film Distribution»
Продолжительность: 01:12:46
Перевод: Не требуется

Файл
Формат: avi
Качество: WEB-DLRip
Видео: XviD build 73, 704x400 (16:9), 25.000 fps, 1230 Kbps (0.175 bit/pixel)
Звук: 48.0 kHz, MP3, 2/0 ch, 192 kbps
Субтитры: нет

General
Complete name : Bremenskie.Razbojniki.2016.XviD.WEB-DLRip.GeneralFilm.avi
Format : AVI
Format/Info : Audio Video Interleave
File size : 745 MiB
Duration : 1h 12mn
Overall bit rate : 1 431 Kbps
Writing application : VirtualDubMod 1.5.10.3 | www.virtualdub-fr.org || (build 2550/release)
Writing library : VirtualDubMod build 2550/release

Video
ID : 0
Format : MPEG-4 Visual
Format profile : Advanced Simple@L5
Format settings, BVOP : 1
Format settings, QPel : No
Format settings, GMC : No warppoints
Format settings, Matrix : Custom
Codec ID : XVID
Codec ID/Hint : XviD
Duration : 1h 12mn
Bit rate : 1 230 Kbps
Width : 704 pixels
Height : 400 pixels
Display aspect ratio : 16:9
Frame rate : 25.000 fps
Color space : YUV
Chroma subsampling : 4:2:0
Bit depth : 8 bits
Scan type : Progressive
Compression mode : Lossy
Bits/(Pixel*Frame) : 0.175
Stream size : 640 MiB (86%)
Writing library : XviD 73

Audio
ID : 1
Format : MPEG Audio
Format version : Version 1
Format profile : Layer 3
Codec ID : 55
Codec ID/Hint : MP3
Duration : 1h 12mn
Bit rate mode : Constant
Bit rate : 192 Kbps
Channel(s) : 2 channels
Sampling rate : 48.0 KHz
Compression mode : Lossy
Stream size : 99.9 MiB (13%)
Alignment : Aligned on interleaves
Interleave, duration : 40 ms (1.00 video frame)
Interleave, preload duratio : 504 ms
Writing library : LAME3.99r
Encoding settings : -m s -V 4 -q 0 -lowpass 18.6 -b 192





Релиз от:




реклама партнёра


Вернуться к началу
 Профиль Отправить личное сообщение  
 
   Похожие торренты   Автор   Торрент   Размер 
В этой теме нет новых непрочитанных сообщений. Бременские разбойники (Мультфильм, комедия, приключения, музыка, 2016) WEB-DLRip от Generalfilm | КПК | iTunes

marya111

92 | 5

372.5 МБ

В этой теме нет новых непрочитанных сообщений. Бременские разбойники [Мультфильм, комедия, приключения, музыка, 2016] WEB-DLRip [iTunes]

salma3

6641 | 1161

1.37 ГБ

В этой теме нет новых непрочитанных сообщений. Бременские разбойники [Мультфильм, комедия, приключения, музыка, 2016] WEB-DL 1080p [iTunes]

salma3

1775 | 129

2.77 ГБ

В этой теме нет новых непрочитанных сообщений. Бременские разбойники [Мультфильм, комедия, приключения, музыка, 2016] WEB-DL 720p [iTunes]

salma3

691 | 52

2.21 ГБ

В этой теме нет новых непрочитанных сообщений. Бременские разбойники (Мультфильм, комедия, приключения, 2016) TS

marya111

416 | 79

1.37 ГБ

В этой теме нет новых непрочитанных сообщений. Снежная королева 3. Огонь и лед (Мультфильм, комедия, приключения, семейный, 2016) WEB-DLRip от GeneralFilm | iTunes

marya111

226 | 42

746.44 МБ

В этой теме нет новых непрочитанных сообщений. Монах и бес (Комедия, фантастика, 2016) WEB-DLRip от Generalfilm | КПК | iTunes

marya111

327 | 16

470.41 МБ


Начать новую тему Ответить на тему  [ 1 сообщение ] 




Для Мосгорсуда, Роскомнадзора и рекламодателей:: mosgorsud-torrent[собачка]yandex.ru