Торрент файл
скачать торрент магнет ссылка Добавлен: 08 янв 2017, 17:06
Размер: 9.99 ГБ
Сидеров: 45
Личеров: 13
Автор

СообщениеДобавлено: 08 янв 2017, 17:06 

Не в сети
Дата регистрации:
28 сен 2016, 18:10
Спасибо: 203 / 0
Сообщения: 2003
Информация о фильме
Название: Тайная жизнь домашних животных
Оригинальное название: The Secret Life of Pets
Год выхода: 2016
Жанр: мультфильм, комедия, приключения, семейный
Режиссер: Ярроу Чейни / Yarrow Cheney, Крис Рено / Chris Renaud
Роли озвучивали: Луис С.К., Эрик Стоунстрит, Кевин Харт, Дженни Слейт, Элли Кемпер, Альберт Брукс, Лэйк Белл, Дэна Карви, Хэннибал Бёресс, Бобби Мойнахан
О фильме: Что делают домашние животные пока хозяева пропадают на работе? С тоской смотрят в окно? Смиренно дремлют на коврике у двери? Как бы не так. Они ведут свою тайную жизнь.

«Думаете, они ждут вас у порога весь день?»





Релиз от -
Автор рипа: jaka

Выпущено: Япония, США
Продолжительность: 01:26:27
Перевод 1: Профессиональный (полное дублирование) BD EUR
Перевод 2: Профессиональный (полное дублирование) BD EUR, украинский
Оригинальная аудиодорожка: английская
Субтитры: Русские (полные, форсированные), Украинские (полные, форсированные), Английские (полные, SDH, SDH Colored) (спасибо Elheym)
Главы: присутствуют, сохранены оригинальные

Файл:
Формат: MKV
Качество: BDRip 1080p (источник: / Blu-ray Disc [SECRET_LIFE_OF_PETS_UPB3_HDCLUB] / 1080p)
Видео: 1920x1038 (1.85:1), 23.976 fps, MPEG-4 AVC, ~14300 kbps avg, 0.299 bit/pixel
Аудио #1: 48 kHz, AC3 Dolby Digital, 3/2 (L,C,R,l,r) + LFE ch, ~640 kbps avg (DUB)
Аудио #2: 48 kHz, AC3 Dolby Digital, 3/2 (L,C,R,l,r) + LFE ch, ~640 kbps avg (UKR)
Аудио #3: 48 kHz, AC3 Dolby Digital, 3/2 (L,C,R,l,r) + LFE ch, ~640 kbps avg (ENG)
Сэмпл: скачать
Размер: 9,99 GB

Уникальный идентификатор : 221087114321163973899109968527772306484 (0xA653D4522D71AC5AB85F3CF1FFA34C34)
Полное имя : The.Secret.Life.of.Pets.2016.1080p.BluRay.Rus.Ukr.Eng.-HQCLUB.mkv
Формат : Matroska
Версия формата : Version 2
Размер файла : 9,99 Гбайт
Продолжительность : 1 ч. 26 м.
Общий поток : 16,5 Мбит/сек
Дата кодирования : UTC 2017-01-07 09:46:50
Программа кодирования : mkvmerge v5.2.0 ('I can't explain') built on Dec 18 2011 18:12:03
Библиотека кодирования : libebml v1.2.3 + libmatroska v1.3.0
Обложка : Yes
Attachments : cover.jpg

Видео
Идентификатор : 1
Формат : AVC
Формат/Информация : Advanced Video Codec
Профиль формата : High@L4.1
Параметр CABAC формата : Да
Параметр ReFrames формата : 4 кадра
Идентификатор кодека : V_MPEG4/ISO/AVC
Продолжительность : 1 ч. 26 м.
Битрейт : 14,3 Мбит/сек
Ширина : 1920 пикселей
Высота : 1038 пикселей
Соотношение сторон : 1,85:1
Режим частоты кадров : Постоянный
Частота кадров : 23,976 (24000/1001) кадра/сек
Цветовое пространство : YUV
Субдискретизация насыщенности : 4:2:0
Битовая глубина : 8 бит
Тип развёртки : Прогрессивная
Бит/(Пиксели*Кадры) : 0.299
Размер потока : 8,63 Гбайт (86%)
Заголовок : Тайная жизнь домашних животных / The Secret Life of Pets (2016) BDRip 1080p by jaka
Библиотека кодирования : x264 core 148 r2744 b97ae06
Настройки программы : cabac=1 / ref=4 / deblock=1:-3:-2 / analyse=0x3:0x113 / me=umh / subme=11 / psy=1 / psy_rd=0.79:0.00 / mixed_ref=1 / me_range=32 / chroma_me=1 / trellis=2 / 8x8dct=1 / cqm=0 / deadzone=21,11 / fast_pskip=0 / chroma_qp_offset=-2 / threads=12 / lookahead_threads=2 / sliced_threads=0 / nr=0 / decimate=1 / interlaced=0 / bluray_compat=0 / constrained_intra=0 / bframes=9 / b_pyramid=2 / b_adapt=2 / b_bias=0 / direct=3 / weightb=1 / open_gop=0 / weightp=2 / keyint=230 / keyint_min=23 / scenecut=40 / intra_refresh=0 / rc_lookahead=60 / rc=crf / mbtree=0 / crf=8.8 / qcomp=0.70 / qpmin=0 / qpmax=69 / qpstep=4 / vbv_maxrate=50000 / vbv_bufsize=62500 / crf_max=0.0 / nal_hrd=none / filler=0 / ip_ratio=1.40 / pb_ratio=1.30 / aq=3:1.00 / zones=0,597,crf=8.8/663,858,crf=13.5/1158,1253,crf=13.5/1365,1459,crf=13.5/1806,1974,crf=10.5/6974,6994,crf=13.5/7141,7150,crf=13.5/7197,7206,crf=13.5/7237,7332,crf=13.5/7535,7560,crf=13.5/8031,8423,crf=13.5/13967,14053,crf=13.5/15558,15767,crf=13.5/22599,22614,crf=13.5/28689,28897,crf=11.5/31783,31872,crf=13.5/32494,32509,crf=13.5/33407,33457,crf=13.5/36920,37031,crf=13.5/37137,37219,crf=13.5/38519,38553,crf=13.5/41014,41053,crf=11.5/42897,43022,crf=13.5/43179,43249,crf=13.5/43533,43594,crf=13.5/44200,44283,crf=13.5/46193,46310,crf=12.5/55818,55916,crf=13.5/56688,56723,crf=13.5/57501,57523,crf=11.5/65032,65124,crf=13.5/65642,65761,crf=11.5/70433,70575,crf=13.5/72337,72427,crf=11.5/74241,74274,crf=11.5/80191,80258,crf=13.5/84178,84227,crf=13.5/84464,84748,crf=11.5/84787,84864,crf=11.5/87530,87646,crf=11.5/90015,90030,crf=13.5/99279,99382,crf=13.5/99502,99584,crf=11.5/101285,102174,crf=11.5/104204,104216,crf=13.5/104363,104438,crf=13.5/104544,104563,crf=13.5/104624,104660,crf=13.5/104739,104784,crf=13.5/110090,110200,crf=13.5/111859,111872,crf=13.5/111995,112048,crf=13.5/113209,113227,crf=13.5/113650,113699,crf=13.5
Язык : English
Default : Да
Forced : Нет
Цветовой диапазон : Limited
Основные цвета : BT.709
Характеристики трансфера : BT.709
Коэффициенты матрицы : BT.709

Аудио #1
Идентификатор : 2
Формат : AC-3
Формат/Информация : Audio Coding 3
Расширение режима : CM (complete main)
Параметр Endianness формата : Big
Идентификатор кодека : A_AC3
Продолжительность : 1 ч. 26 м.
Вид битрейта : Постоянный
Битрейт : 640 Кбит/сек
Каналы : 6 каналов
Расположение каналов : Front: L C R, Side: L R, LFE
Частота : 48,0 КГц
Частота кадров : 31,250 кадров/сек (1536 spf)
Метод сжатия : С потерями
Размер потока : 396 Мбайт (4%)
Заголовок : АС3 5.1 @ 640 kbps - Dub, BD EUR
Язык : Russian
Default : Нет
Forced : Нет

Аудио #2
Идентификатор : 3
Формат : AC-3
Формат/Информация : Audio Coding 3
Расширение режима : CM (complete main)
Параметр Endianness формата : Big
Идентификатор кодека : A_AC3
Продолжительность : 1 ч. 26 м.
Вид битрейта : Постоянный
Битрейт : 640 Кбит/сек
Каналы : 6 каналов
Расположение каналов : Front: L C R, Side: L R, LFE
Частота : 48,0 КГц
Частота кадров : 31,250 кадров/сек (1536 spf)
Метод сжатия : С потерями
Размер потока : 396 Мбайт (4%)
Заголовок : АС3 5.1 @ 640 kbps - Dub, BD EUR
Язык : Ukrainian
Default : Нет
Forced : Нет

Аудио #3
Идентификатор : 4
Формат : AC-3
Формат/Информация : Audio Coding 3
Расширение режима : CM (complete main)
Параметр Endianness формата : Big
Идентификатор кодека : A_AC3
Продолжительность : 1 ч. 26 м.
Вид битрейта : Постоянный
Битрейт : 640 Кбит/сек
Каналы : 6 каналов
Расположение каналов : Front: L C R, Side: L R, LFE
Частота : 48,0 КГц
Частота кадров : 31,250 кадров/сек (1536 spf)
Метод сжатия : С потерями
Размер потока : 396 Мбайт (4%)
Заголовок : АС3 5.1 @ 640 kbps - Original
Язык : English
Default : Нет
Forced : Нет

Текст #1
Идентификатор : 5
Формат : UTF-8
Идентификатор кодека : S_TEXT/UTF8
Идентификатор кодека/Информация : UTF-8 Plain Text
Заголовок : Full
Язык : Russian
Default : Нет
Forced : Нет

Текст #2
Идентификатор : 6
Формат : UTF-8
Идентификатор кодека : S_TEXT/UTF8
Идентификатор кодека/Информация : UTF-8 Plain Text
Заголовок : Forced
Язык : Russian
Default : Да
Forced : Нет

Текст #3
Идентификатор : 7
Формат : UTF-8
Идентификатор кодека : S_TEXT/UTF8
Идентификатор кодека/Информация : UTF-8 Plain Text
Заголовок : Full
Язык : Ukrainian
Default : Нет
Forced : Нет

Текст #4
Идентификатор : 8
Формат : UTF-8
Идентификатор кодека : S_TEXT/UTF8
Идентификатор кодека/Информация : UTF-8 Plain Text
Заголовок : Forced
Язык : Ukrainian
Default : Нет
Forced : Нет

Текст #5
Идентификатор : 9
Формат : UTF-8
Идентификатор кодека : S_TEXT/UTF8
Идентификатор кодека/Информация : UTF-8 Plain Text
Заголовок : Full
Язык : English
Default : Нет
Forced : Нет

Текст #6
Идентификатор : 10
Формат : UTF-8
Идентификатор кодека : S_TEXT/UTF8
Идентификатор кодека/Информация : UTF-8 Plain Text
Заголовок : SDH
Язык : English
Default : Нет
Forced : Нет

Текст #7
Идентификатор : 11
Формат : UTF-8
Идентификатор кодека : S_TEXT/UTF8
Идентификатор кодека/Информация : UTF-8 Plain Text
Заголовок : SDH Colored
Язык : English
Default : Нет
Forced : Нет

Меню
00:00:00.000 : en:
00:05:05.847 : en:
00:09:24.063 : en:
00:13:18.839 : en:
00:18:03.665 : en:
00:22:14.458 : en:
00:28:51.855 : en:
00:32:54.847 : en:
00:36:55.838 : en:
00:42:27.294 : en:
00:44:46.767 : en:
00:50:21.226 : en:
00:54:45.407 : en:
00:59:33.987 : en:
01:02:36.544 : en:
01:07:12.361 : en:
01:13:06.840 : en:
01:16:04.601 : en:
01:18:48.056 : en:
01:19:58.835 : en:

x264 [info]: frame I:1000 Avg QP:13.15 size:354841
x264 [info]: frame P:31582 Avg QP:14.16 size:142062
x264 [info]: frame B:91786 Avg QP:16.36 size: 50562

x264 [info]: consecutive B-frames: 3.7% 4.7% 16.0% 24.0% 15.0% 29.9% 3.2% 1.9% 0.8% 0.9%

x264 [info]: ref P L0: 58.5% 10.1% 22.4% 8.4% 0.5% 0.0%
x264 [info]: ref B L0: 84.8% 12.7% 2.5%
x264 [info]: ref B L1: 94.6% 5.4%






реклама партнёра


Вернуться к началу
 Профиль Отправить личное сообщение  
 
   Похожие торренты   Автор   Торрент   Размер 
В этой теме нет новых непрочитанных сообщений. Тайная жизнь домашних животных / The Secret Life of Pets (мультфильм, комедия, приключения, семейный, 2016) BDRip от HQCLUB | Лицензия

marya111

11 | 1

1.45 ГБ

В этой теме нет новых непрочитанных сообщений. Тайная жизнь домашних животных / The Secret Life of Pets (мультфильм, комедия, приключения, семейный, 2016) BDRip 720p от HQCLUB | D | Лицензия

marya111

0 | 2

5.19 ГБ

В этой теме нет новых непрочитанных сообщений. Тайная жизнь домашних животных / The Secret Life of Pets [мультфильм, комедия, приключения, семейный, 2016] Blu-ray CEE 1080p, Dub [Лицензия]

salma3

27 | 19

35.46 ГБ

В этой теме нет новых непрочитанных сообщений. Тайная жизнь домашних животных / The Secret Life of Pets (мультфильм, комедия, приключения, семейный, 2016) BDRip от HELLYWOOD | Лицензия

marya111

137 | 11

1.45 ГБ

В этой теме нет новых непрочитанных сообщений. Тайная жизнь домашних животных / The Secret Life of Pets (мультфильм, комедия, приключения, семейный, 2016) BDRip 720p от Scarabey | Лицензия

marya111

275 | 94

2.66 ГБ

В этой теме нет новых непрочитанных сообщений. Тайная жизнь домашних животных / The Secret Life of Pets [мультфильм, комедия, семейный, 2016] BDRip, Dub [Лицензия]

salma3

120 | 22

1.45 ГБ

В этой теме нет новых непрочитанных сообщений. Тайная жизнь домашних животных / The Secret Life of Pets [мультфильм, комедия, приключения, семейный, 2016] BDRip-AVC, Dub [iTunes]

salma3

321 | 96

2.14 ГБ


Начать новую тему Ответить на тему  [ 1 сообщение ] 




Для Мосгорсуда, Роскомнадзора и рекламодателей:: mosgorsud-torrent[собачка]yandex.ru