Торрент файл
скачать торрент магнет ссылка Добавлен: 07 янв 2017, 16:40
Размер: 2.21 ГБ
Сидеров: 49
Личеров: 11
Автор

СообщениеДобавлено: 07 янв 2017, 16:40 

Не в сети
Дата регистрации:
28 сен 2016, 18:10
Спасибо: 211 / 0
Сообщения: 1999
Информация о фильме
Название: Три кота
Год выхода: 2015-2016
Страна: Россия, Метраном
Жанр: Мультсериал, детский, приключения, комедия
Продолжительность: 38 х ~ 00:05:14
Язык: русский

Режиссер: Дмитрий Высоцкий

Роли озвучивали: Максим Сергеев, Светлана Кузнецова, Михаил Хрусталев, Илья Хрусталев, Михаил Новодворцев, София Гадасина, Тимур Хамитов, Александра Глушинская

О фильме: Анимационный сериал рассказывает о жизни трех забавных котят. Герои фильма - братья Коржик и Компот и их маленькая сестренка Карамелька. Котята все делают вместе и поддерживают друг друга. Они попадают в разные приключения, учатся выражать свои чувства и эмоции и исследуют окружающий мир. Благодаря дружным семейным отношениям, богатой фантазии и мудрым советам мамы и папы герои легко выходят из любой ситуации.

01. Музыкальная открытка
02. Киношедевр
03. Пикник
04. День страшилок
05. Варенье в подвале
06. Велосипед
07. Клад
08. Игра в доктора
09. Детектив
10. Поход в магазин
11. Снежные скульптуры
12. Космическое путешествие
13. Воскресенье
14. Говорящая птица
15. Пришла весна
16. Почта
17. Танцевальный конкурс
18. Домик на дереве
19. Картинная галерея
20. Урожай
21. День рождения мамы
22. Телефон
23. Кулинарное шоу
24. Новый год
25. Папа за маму
26. Самолет
27. Писатели
28. Волшебная палочка
29. Папин брат
30. Командировка
31. Молочный зуб
32. Дайвинг
33. Сны на заказ
34. Фантазия
35. Бабочка
36. Супергерои
37. Снежные горки
38. Дед Мороз и Снегурочка



Доп. информация:
Семпл



Файл
Формат: AVI
Качество: WEB-DLRip
Видео: 720x400 (1.80:1), 25 fps, XviD build 65 ~1400 kbps avg, 0.19 bit/pixel
Звук: 48 kHz, AC3 Dolby Digital, 2/0 (L,R) ch, ~192.00 kbps avg

28. Волшебная палочка. XviD-merci-.avi
Format : AVI
Format/Info : Audio Video Interleave
File size : 58.9 MiB
Duration : 5 min 8 s
Overall bit rate : 1 603 kb/s
Writing application : VirtualDubMod 1.5.10.3 | www.virtualdub-fr.org || (build 2550/release)
Writing library : VirtualDubMod build 2550/release

Video
ID : 0
Format : MPEG-4 Visual
Format profile : Advanced Simple@L5
Format settings, BVOP : 1
Format settings, QPel : No
Format settings, GMC : No warppoints
Format settings, Matrix : Default (MPEG)
Codec ID : XVID
Codec ID/Hint : XviD
Duration : 5 min 8 s
Bit rate : 1 401 kb/s
Width : 720 pixels
Height : 400 pixels
Display aspect ratio : 16:9
Frame rate : 25.000 FPS
Color space : YUV
Chroma subsampling : 4:2:0
Bit depth : 8 bits
Scan type : Progressive
Compression mode : Lossy
Bits/(Pixel*Frame) : 0.195
Stream size : 51.5 MiB (87%)
Writing library : XviD 65

Audio
ID : 1
Format : AC-3
Format/Info : Audio Coding 3
Mode extension : CM (complete main)
Format settings, Endianness : Big
Codec ID : 2000
Duration : 5 min 8 s
Bit rate mode : Constant
Bit rate : 192 kb/s
Channel(s) : 2 channels
Channel positions : Front: L R
Sampling rate : 48.0 kHz
Frame rate : 31.250 FPS (1536 spf)
Bit depth : 16 bits
Compression mode : Lossy
Stream size : 7.06 MiB (12%)
Alignment : Split accross interleaves
Interleave, duration : 40 ms (1.00 video frame)
Interleave, preload duratio : 500 ms



Релиз от:
Автор релиза: /




реклама партнёра


Вернуться к началу
 Профиль Отправить личное сообщение  
 
   Похожие торренты   Автор   Торрент   Размер 
В этой теме нет новых непрочитанных сообщений. Три кота [01-38] (Мультсериал, детский, приключения, комедия, 2015-2016) WEB-DLRip 720p от ExKinoRay

marya111

120 | 37

1.55 ГБ

В этой теме нет новых непрочитанных сообщений. Три кота [01-39] ( Мультсериал, детский, приключения, комедия, 2015-2016) WEB-DLRip 720p от ExKinoRay

marya111

78 | 13

1.6 ГБ

В этой теме нет новых непрочитанных сообщений. Тима и Тома [01-41] (Мультсериал, рисованный, детский, комедия, приключения, 2015-2016) WEB-DLRip от ExKinoRay

marya111

51 | 12

2 ГБ

В этой теме нет новых непрочитанных сообщений. Бумажки [01-62] (Мультсериал, детский, семейный, приключения, 2015-2016) WEB-DLRip 1080p от ExKinoRay

marya111

0 | 0

5.33 ГБ

В этой теме нет новых непрочитанных сообщений. Колобанга. Только для пользователей интернета [s01,s02] ( Мультсериал, приключения, детектив, детский, 2015-2016) WEB-DLRip от ExKinoRay

marya111

28 | 11

3.94 ГБ

В этой теме нет новых непрочитанных сообщений. Колобанга. Только для пользователей интернета [s01,s02] (Мультсериал, приключения, детектив, детский, 2015-2016) WEB-DLRip 720p от ExKinoRay

marya111

27 | 22

3.26 ГБ

В этой теме нет новых непрочитанных сообщений. Солнечные зайчики / Sunny Bunnies [s01] (Мультсериал, детский, комедия, приключения, 2015) WEB-DLRip 720p от ExKinoRay

marya111

21 | 4

1.13 ГБ


Начать новую тему Ответить на тему  [ 1 сообщение ] 




Для Мосгорсуда, Роскомнадзора и рекламодателей:: mosgorsud-torrent[собачка]yandex.ru