Торрент файл
скачать торрент магнет ссылка Добавлен: 07 янв 2017, 16:40
Размер: 641.91 МБ
Сидеров: 212
Личеров: 20
Автор

СообщениеДобавлено: 07 янв 2017, 16:40 

Не в сети
Дата регистрации:
28 сен 2016, 18:10
Спасибо: 190 / 0
Сообщения: 2009
Информация о фильме
Название: Синий Трактор
Год выхода: 2015-2016
Жанр: Мультфильм, музыка
Режиссер: Синий Трактор
В ролях: Трактор и животные

О фильме:
Развивающие мультики про машинки, песенка про трактор и разных животных, которых он везет в прицепе. В этом видео дети смогут отгадать, кого везет трактор, послушав песенку!

Страна: Россия
Студия: Теремок ТВ
Продолжительность: 01:09:58
Перевод: Не требуется

Файл
Кодек: XviD
Качество: WEB-DLRip
Видео: 720x400 (1.80:1), 25 fps, XviD build 73 ~1144 kbps avg, 0.16 bit/pixel
Звук: 44.100 kHz, MPEG Layer 3, 2 ch, ~128.00 kbps avg
Субтитры: Отсутствуют

Семпл

General
Complete name : D:Изготовление рипаTraktor.webdlrip by shkiper.avi
Format : AVI
Format/Info : Audio Video Interleave
File size : 642 MiB
Duration : 1 h 9 min
Overall bit rate : 1 283 kb/s
Writing application : VirtualDubMod 1.5.10.3 | www.virtualdub-fr.org || (build 2550/release)
Writing library : VirtualDubMod build 2550/release

Video
ID : 0
Format : MPEG-4 Visual
Format profile : Advanced Simple@L5
Format settings, BVOP : 1
Format settings, QPel : No
Format settings, GMC : No warppoints
Format settings, Matrix : Custom
Codec ID : XVID
Codec ID/Hint : XviD
Duration : 1 h 9 min
Bit rate : 1 145 kb/s
Width : 720 pixels
Height : 400 pixels
Display aspect ratio : 16:9
Frame rate : 25.000 FPS
Color space : YUV
Chroma subsampling : 4:2:0
Bit depth : 8 bits
Scan type : Progressive
Compression mode : Lossy
Bits/(Pixel*Frame) : 0.159
Stream size : 573 MiB (89%)
Writing library : XviD 73

Audio
ID : 1
Format : MPEG Audio
Format version : Version 1
Format profile : Layer 3
Codec ID : 55
Codec ID/Hint : MP3
Duration : 1 h 9 min
Bit rate mode : Constant
Bit rate : 128 kb/s
Channel(s) : 2 channels
Sampling rate : 44.1 kHz
Compression mode : Lossy
Stream size : 64.1 MiB (10%)
Alignment : Split accross interleaves
Interleave, duration : 40 ms (1.00 video frame)
Interleave, preload duratio : 500 ms
Writing library : LAME3.99r
Encoding settings : -m s -V 4 -q 2 -lowpass 17 -b 128


Релиз от:




реклама партнёра


Вернуться к началу
 Профиль Отправить личное сообщение  
 
   Похожие торренты   Автор   Торрент   Размер 
В этой теме нет новых непрочитанных сообщений. Кукутики (Музыка, детский, 2016) WEB-DLRip от ImperiaFilm

marya111

172 | 12

591.48 МБ

В этой теме нет новых непрочитанных сообщений. Ивановы (Драма, комедия, 2016) WEB-DLRip от ImperiaFilm

marya111

148 | 19

745.46 МБ

В этой теме нет новых непрочитанных сообщений. Вечное свидание (Детектив, приключения, 2016) WEB-DLRip от ImperiaFilm

marya111

274 | 9

745.63 МБ

В этой теме нет новых непрочитанных сообщений. Маша и Медведь. Песенка про время (Мультфильм, 2016) WEBRip от ImperiaFilm

marya111

24 | 0

30.12 МБ

В этой теме нет новых непрочитанных сообщений. Бременские разбойники [Мультфильм, комедия, приключения, музыка, 2016] WEB-DLRip [iTunes]

salma3

6660 | 1161

1.37 ГБ

В этой теме нет новых непрочитанных сообщений. Бременские разбойники (Мультфильм, комедия, приключения, музыка, 2016) WEB-DLRip от GeneralFilm | iTunes

marya111

249 | 10

745.03 МБ

В этой теме нет новых непрочитанных сообщений. Бременские разбойники (Мультфильм, комедия, приключения, музыка, 2016) WEB-DLRip от Generalfilm | КПК | iTunes

marya111

92 | 5

372.5 МБ


Начать новую тему Ответить на тему  [ 1 сообщение ] 




Для Мосгорсуда, Роскомнадзора и рекламодателей:: mosgorsud-torrent[собачка]yandex.ru