Торрент файл
скачать торрент магнет ссылка Добавлен: 09 апр 2011, 20:55
Размер: 1.46 ГБ
Сидеров: 195
Личеров: 22
Автор

СообщениеДобавлено: 09 апр 2011, 20:55 

Не в сети
Супермодератор
Аватара пользователя
Дата регистрации:
22 май 2010, 11:03
Возраст: 31
Спасибо: 7509 / 13
Сообщения: 49940
Артур и война двух миров / Arthur et la guerre des deux mondes



Перевод: Профессиональный (полное дублирование), cубтитры: есть (английские)
Формат: DVDRip, MKV, H.264, AC3
Страна: Франция
Режиссер: Люк Бессон
Жанр: фэнтези, приключения, семейный
Продолжительность: 01:36:59
Год выпуска: 2010

В ролях: Селена Гомес, Фредди Хаймор, Миа Фэрроу, Джимми Фэллон, Игги Поп, Роберт Стэнтон, Фредерик Бел, Лу Рид, Пенни Бальфур, Жан-Поль Рув

Описание: Какие дьявольские планы собирается осуществить Урдалак, чтобы завоевать новый мир, в который он переместился обманным путем? Как Артур, оставшийся в мире минипутов, сможет победить жестокого Ужасного У? Чтобы сохранить любовь прекрасной принцессы Селении, Артур готов вступить в бой против Урдалака как в мире минипутов, так и в большом реальном мире…

Рейтинг на IMDB: 5.8/10
Рейтинг на КиноПоиск.RU: 5.398

Видео: 720x432@1024x432 (2.35:1), 25 fps, MPEG4 AVC (x264) , ~1709 kbps avg, 0.215 bit/pixel
Аудио: 44.1 KHz, AC3, 2 ch, ~448 kbps avg

Дополнительная информация:
бюджет = ?65 000 000
сборы в мире = $27 385 614
сборы в России = $1 012 670




Лицензия!!!

Video #1
ID : 1
Format : AVC
Format/Info : Advanced Video Codec
Format profile :
Format settings, CABAC : Yes
Format settings, ReFrames : 4 frames
Muxing mode : Container profile=Unknown@3.0
Codec ID : V_MPEG4/ISO/AVC
Duration : 1h 36mn
Bit rate : 1 669 Kbps
Nominal bit rate : 1 709 Kbps
Width : 720 pixels
Height : 432 pixels
Display aspect ratio : 2.35:1
Original display aspect ratio : 1.667
Frame rate : 25.000 fps
Resolution : 24 bits
Colorimetry : 4:2:0
Scan type : Progressive
Bits/(Pixel*Frame) : 0.215
Stream size : 1.13 GiB (77%)
Writing library : x264 core 108 r1790bm 8eaf8a6
Encoding settings : cabac=1 / ref=1 / deblock=1:0:0 / analyse=0x3:0x113 / me=hex / subme=2 / psy=1 / psy_rd=0.00:0.00 / mixed_ref=0 / me_range=16 / chroma_me=1 / trellis=0 / 8x8dct=1 / cqm=0 / deadzone=21,11 / fast_pskip=1 / chroma_qp_offset=0 / threads=1 / sliced_threads=0 / nr=0 / decimate=1 / interlaced=0 / constrained_intra=0 / bframes=3 / b_pyramid=2 / b_adapt=1 / b_bias=0 / direct=1 / weightb=1 / open_gop=0 / weightp=0 / keyint=250 / keyint_min=25 / scenecut=40 / intra_refresh=0 / rc_lookahead=10 / rc=2pass / mbtree=1 / bitrate=1709 / ratetol=1.0 / qcomp=0.60 / qpmin=10 / qpmax=51 / qpstep=4 / cplxblur=20.0 / qblur=0.5 / ip_ratio=1.40 / aq=1:1.00
Language : English
Audio #2
ID : 2
Format : AC-3
Format/Info : Audio Coding 3
Codec ID : A_AC3
Duration : 1h 36mn
Bit rate mode : Constant
Bit rate : 448 Kbps
Channel(s) : 6 channels
Channel positions : Front: L C R, Surround: L R, LFE
Sampling rate : 48.0 KHz
Stream size : 311 MiB (21%)
Language : Russian
Text #3
ID : 3
Format : UTF-8
Codec ID : S_TEXT/UTF8
Codec ID/Info : UTF-8 Plain Text
Language : English








реклама партнёра


Вернуться к началу
 Профиль Отправить личное сообщение  
 
   Похожие торренты   Автор   Торрент   Размер 
В этой теме нет новых непрочитанных сообщений. У двух голубок / Aux deux colombes [Комедия, 1955] DVDRip, Avo+Sub

salma3

13 | 2

1.43 ГБ

В этой теме нет новых непрочитанных сообщений. Артур и минипуты: трилогия / Arthur et les Minimoys: Trilogy (2006, 2009, 2010) BDRip [1080p]

marya111

0 | 3

32.1 ГБ

В этой теме нет новых непрочитанных сообщений. Артур Ньюман, профессионал гольфа / Arthur Newman [Драма, комедия, 2012] HDTVRip, Mvo

salma3

66 | 9

1.37 ГБ

В этой теме нет новых непрочитанных сообщений. Война миров / War of the Worlds [Фантастика,Триллер, 2005] HDRip, Dvo

salma3

0 | 3

1.46 ГБ

В этой теме нет новых непрочитанных сообщений. Война миров: Голиаф / War of the Worlds: Goliath [мультфильм, фантастика, боевик, 2012] HDRip, Avo

salma3

128 | 5

1.37 ГБ

В этой теме нет новых непрочитанных сообщений. Война миров Z / World War Z [ужасы, фантастика, боевик, триллер, драма, 2013] BDRip-AVC, Dub [Лицензия | EXTENDED]

Dracon

4 | 2

2.08 ГБ

В этой теме нет новых непрочитанных сообщений. Война миров Z / World War Z [Ужасы, фантастика, боевик, триллер, драма, 2013] BDRip 720p, Dub+Sub [UNRATED | Лицензия]

hobbit1021

138 | 11

4.38 ГБ


Начать новую тему Ответить на тему  [ 1 сообщение ] 




Для Мосгорсуда, Роскомнадзора и рекламодателей:: mosgorsud-torrent[собачка]yandex.ru