Торрент файл
скачать торрент магнет ссылка Добавлен: 06 янв 2017, 13:19
Размер: 2.15 ГБ
Сидеров: 374
Личеров: 61
Автор

СообщениеДобавлено: 06 янв 2017, 13:19 

Не в сети
Супермодератор
Аватара пользователя
Дата регистрации:
15 фев 2012, 16:44
Возраст: 27
Спасибо: 5363 / 2095
Сообщения: 19120
Год выхода: 2015
Жанр: фантастика, боевик
Режиссер: Ля Йи
В ролях: Джо Мак, Ван Хунг, Ял Дам

О фильме:
Тибет пережил всемирный апокалипсис, цивилизация оказалась отброшенной назад на тысячи лет развития. Магия и технология скрывается богами от людей, чтоб катастрофа не вздумала повториться. Но темные силы не могут успокоиться, они хотят в очередной раз дать людям власть над магией и технологиями, чтобы те возродились из пепла и перестали поклоняться богам, спрятавшим знания. И только одна девочка в компании собаки может спасти мир на земле и дать людям возможность продолжать существовать без знаний, которые они потеряли.



Страна: Китай
Студия: Yili Animation Studio
Продолжительность: 01:36:30
Перевод: Любительский одноголосный, закадровый [Хихикающий доктор]

Файл
Кодек: H.264
Качество: WEBRip 1080p
Видео: AVC , 1920x1072 (16:9), 25 fps ~ 2920 Кbps
Звук: MP3, 44.1 KHz 2 ch ~ 192 Kb/s
Субтитры: китайские, английские (неотключаемые)

Общее
Уникальный идентификатор : 178773754053811372255198638299450368355 (0x867E92973E0C015FBBC730A1EDA2E163)
Полное имя : Q:TorF10000 Years Later 2015.Xixidok.mkv
Формат : Matroska
Версия формата : Version 2
Размер файла : 2,15 Гбайт
Продолжительность : 1 ч. 36 м.
Общий поток : 3184 Кбит/сек
Дата кодирования : UTC 2017-01-05 07:53:10
Программа кодирования : mkvmerge v5.4.0 ('Piper') built on Mar 10 2012 13:34:39
Библиотека кодирования : libebml v1.2.3 + libmatroska v1.3.0
DURATION : 01:36:55.223000000
NUMBER_OF_FRAMES : 222614
NUMBER_OF_BYTES : 139565349
_STATISTICS_WRITING_APP : mkvmerge v8.3.0 ('Over the Horizon') 64bit
_STATISTICS_WRITING_DATE_UTC : 2016-12-30 14:46:03
_STATISTICS_TAGS : BPS DURATION NUMBER_OF_FRAMES NUMBER_OF_BYTES

Видео
Идентификатор : 1
Формат : AVC
Формат/Информация : Advanced Video Codec
Профиль формата : High@L4.0
Параметр CABAC формата : Да
Параметр ReFrames формата : 4 кадра
Идентификатор кодека : V_MPEG4/ISO/AVC
Продолжительность : 1 ч. 36 м.
Битрейт : 2929 Кбит/сек
Ширина : 1920 пикселей
Высота : 1072 пикселя
Соотношение сторон : 16:9
Частота кадров : 25,000 кадров/сек
Цветовое пространство : YUV
Субдискретизация насыщенности : 4:2:0
Битовая глубина : 8 бит
Тип развёртки : Прогрессивная
Бит/(Пиксели*Кадры) : 0.057
Размер потока : 1,97 Гбайт (92%)
Default : Да
Forced : Нет
Основные цвета : BT.709-5, BT.1361, IEC 61966-2-4, SMPTE RP177
Характеристики трансфера : BT.709-5, BT.1361
Коэффициенты матрицы : BT.709-5, BT.1361, IEC 61966-2-4 709, SMPTE RP177

Аудио
Идентификатор : 2
Формат : MPEG Audio
Версия формата : Version 1
Профиль формата : Layer 3
Идентификатор кодека : A_MPEG/L3
Идентификатор кодека/Подсказка : MP3
Продолжительность : 1 ч. 36 м.
Вид битрейта : Постоянный
Битрейт : 192 Кбит/сек
Каналы : 2 канала
Частота : 44,1 КГц
Метод сжатия : С потерями
Задержка видео : 20 мс.
Размер потока : 133 Мбайт (6%)
Default : Да
Forced : Нет


/center]


_________________
Проголосуй за трекер Открытый торрент трекер - RUS-MEDIA.ORG

Не забудьте оставить комментарий!



реклама партнёра


Вернуться к началу
 Профиль Отправить личное сообщение  
 
   Похожие торренты   Автор   Торрент   Размер 
В этой теме нет новых непрочитанных сообщений. Тиана: 10000 лет спустя / Teana: 10000 Years Later [мультфильм, фантастика, боевик, 2016] HDRip, Mvo

salma3

971 | 326

1.45 ГБ

В этой теме нет новых непрочитанных сообщений. Человек-муравей / Ant-Man (Пейтон Рид) [фантастика, боевик, комедия, приключения, 2015] WEBRip 1080p, dub [Чистый звук]

Dracon

426 | 6

9.2 ГБ

В этой теме нет новых непрочитанных сообщений. Сорвиголова / Daredevil [S01] (Фил Абрахам, Стивен С. ДеНайт, Кен Джиротти) [фантастика, боевик, 2015] WEBRip 1080p [NewStudio]

Dracon

14 | 21

51.37 ГБ

В этой теме нет новых непрочитанных сообщений. Пиксели / Pixels (Крис Коламбус) [фантастика, боевик, комедия, 2015] WEBRip 1080p, dub [Чистый звук]

Dracon

10908 | 279

7.94 ГБ

В этой теме нет новых непрочитанных сообщений. Мистер Икс / Mr. X (Викрам Бхатт) [Боевик, фантастика, триллер, 2015] WEBRip, mvo

Dracon

2 | 0

1.45 ГБ

В этой теме нет новых непрочитанных сообщений. Дикий город / Bou Chau Mai Sing (Ринго Лам) [2015, Боевик, триллер, криминал, WEBRip 1080p] avo

Dracon

61 | 5

2.26 ГБ

В этой теме нет новых непрочитанных сообщений. Перевозчик: Наследие / The Transporter Refueled [боевик, триллер, криминал, 2015] WEBRip 1080p, Dib [Трейлер]

salma3

247 | 5

91.41 МБ


Начать новую тему Ответить на тему  [ 1 сообщение ] 




Для Мосгорсуда, Роскомнадзора и рекламодателей:: mosgorsud-torrent[собачка]yandex.ru