Торрент файл
скачать торрент магнет ссылка Добавлен: 05 янв 2017, 16:28
Размер: 7.57 ГБ
Сидеров: 289
Личеров: 102
Автор

СообщениеДобавлено: 05 янв 2017, 16:28 

Не в сети
Дата регистрации:
28 сен 2016, 18:10
Спасибо: 204 / 0
Сообщения: 2003
Информация о фильме
✦ Год выхода: 2016
✦ Название: Кубо. Легенда о самурае
✦ Жанр: Мультфильм, полнометражный, фэнтези, приключения, семейный
✦ Оригинальное название: Kubo and the Two Strіngs
✦ Режиссер: Трэвис Найт
✦ В ролях: Арт Паркинсон, Шарлиз Терон, Рэйф Файнс, Джордж Такей, Кэри-Хироюки Тагава, Бренда Ваккаро, Руни Мара, Мэттью МакКонахи, Мейрик Мерфи, Мина Нодзи


Описание фильма
Юный музыкант Кубо наслаждался безмятежной жизнью на берегу океана. В их небольшом селении никогда не случалось ничего необычного, и никто не ждал перемен. Но они наступили, когда в жизнь юноши и его матери ворвался мятежный дух, жаждущий отмщения. Заново узнавая историю своего происхождения, Кубо открывает в себе новые, ранее неизведанные способности и понимает, что он, в сущности, очень похож на отца, которого никогда не видел — легендарного воина, прославленного самурая, павшего в битве со злом.



✦ Выпущено: США, Laika Entertainment
✦ Продолжительность: 01:41:36
✦ Перевод: дублированный -
|| iTunes ||



Информация о файле
✦ Формат:| MKV | x264 |
✦ Качество: BDRip 1080p
✦ Видео: X264/MPEG4-AVC | 1920x804 (2.40:1) | ~9640 kbps | 23,976 fps
✦ Аудио Rus: AC3 | 48 KHz | 5.1 (Front: L С R Side: L R) + LFE | ~384 kbps
✦ Аудио Eng: AC3 | 48 KHz | 5.1 (Front: L С R Side: L R) + LFE | ~640 kbps
✦ Субтитры: || (полные) || английские (полные) ||


x264 [info]: frame I:1021 Avg QP:13.38 size:280603
x264 [info]: frame P:36947 Avg QP:16.40 size: 95980
x264 [info]: frame B:108195 Avg QP:17.41 size: 32466

Общее
Уникальный идентификатор : 220060741678119758128191560737639973173 (0xA58E283E2414B057B84404163EB14135)
Полное имя : X:ATorrentKubo.and.the.Two.Strings.2016.BDRip.1080p.(qqss44).mkv
Формат : Matroska
Версия формата : Version 2
Размер файла : 7,57 Гбайт
Продолжительность : 1 ч. 41 м.
Общий поток : 10,7 Мбит/сек
Название фильма : Kubo.and.the.Two.Strings.2016.BDRip.1080p.(qqss44)
Дата кодирования : UTC 2017-01-04 11:01:07
Программа кодирования : mkvmerge v7.9.0 ('Birds') 64bit
Библиотека кодирования : libebml v1.3.1 + libmatroska v1.4.2

Видео
Идентификатор : 1
Формат : AVC
Формат/Информация : Advanced Video Codec
Профиль формата : High@L4.1
Параметр CABAC формата : Да
Параметр ReFrames формата : 5 кадров
Идентификатор кодека : V_MPEG4/ISO/AVC
Продолжительность : 1 ч. 41 м.
Битрейт : 9640 Кбит/сек
Ширина : 1920 пикселей
Высота : 804 пикселя
Соотношение сторон : 2,40:1
Режим частоты кадров : Постоянный
Частота кадров : 23,976 (24000/1001) кадра/сек
Цветовое пространство : YUV
Субдискретизация насыщенности : 4:2:0
Битовая глубина : 8 бит
Тип развёртки : Прогрессивная
Бит/(Пиксели*Кадры) : 0.260
Размер потока : 6,84 Гбайт (90%)
Заголовок : Kubo.and.the.Two.Strings.2016.BDRip.1080p.(qqss44)
Библиотека кодирования : x264 core 148 r2744kMod b97ae06
Настройки программы : cabac=1 / ref=5 / deblock=1:-3:-3 / analyse=0x3:0x133 / me=umh / subme=11 / psy=1 / fade_compensate=0.00 / psy_rd=1.00:0.00 / mixed_ref=1 / me_range=32 / chroma_me=1 / trellis=2 / 8x8dct=1 / cqm=0 / deadzone=21,11 / fast_pskip=0 / chroma_qp_offset=-2 / threads=12 / lookahead_threads=3 / sliced_threads=0 / nr=0 / decimate=0 / interlaced=0 / bluray_compat=0 / constrained_intra=0 / bframes=11 / b_pyramid=2 / b_adapt=2 / b_bias=0 / direct=3 / weightb=1 / open_gop=0 / weightp=2 / keyint=240 / keyint_min=23 / scenecut=40 / intra_refresh=0 / rc=2pass / mbtree=0 / bitrate=9640 / ratetol=1.0 / qcomp=0.60 / qpmin=0 / qpmax=69 / qpstep=4 / cplxblur=20.0 / qblur=0.5 / ip_ratio=1.40 / pb_ratio=1.30 / aq=3:1.00
Язык : English
Default : Да
Forced : Нет

Аудио #1
Идентификатор : 2
Формат : AC-3
Формат/Информация : Audio Coding 3
Расширение режима : CM (complete main)
Параметр Endianness формата : Big
Идентификатор кодека : A_AC3
Продолжительность : 1 ч. 41 м.
Вид битрейта : Постоянный
Битрейт : 384 Кбит/сек
Каналы : 6 каналов
Расположение каналов : Front: L C R, Side: L R, LFE
Частота : 48,0 КГц
Частота кадров : 31,250 кадров/сек (1536 spf)
Метод сжатия : С потерями
Размер потока : 279 Мбайт (4%)
Заголовок : DUB | DD5.1 @ 384 kbps
Язык : Russian
Default : Да
Forced : Нет

Аудио #2
Идентификатор : 3
Формат : AC-3
Формат/Информация : Audio Coding 3
Расширение режима : CM (complete main)
Параметр Endianness формата : Big
Идентификатор кодека : A_AC3
Продолжительность : 1 ч. 41 м.
Вид битрейта : Постоянный
Битрейт : 640 Кбит/сек
Каналы : 6 каналов
Расположение каналов : Front: L C R, Side: L R, LFE
Частота : 48,0 КГц
Частота кадров : 31,250 кадров/сек (1536 spf)
Метод сжатия : С потерями
Размер потока : 465 Мбайт (6%)
Заголовок : Original | DD5.1 @ 640 kbps
Язык : English
Default : Нет
Forced : Нет

Текст #1
Идентификатор : 4
Формат : UTF-8
Идентификатор кодека : S_TEXT/UTF8
Идентификатор кодека/Информация : UTF-8 Plain Text
Продолжительность : 1 ч. 32 м.
Битрейт : 72 бит/сек
Count of elements : 1014
Размер потока : 49,3 Кбайт (0%)
Заголовок : FULL
Язык : Russian
Default : Нет
Forced : Нет

Текст #2
Идентификатор : 5
Формат : UTF-8
Идентификатор кодека : S_TEXT/UTF8
Идентификатор кодека/Информация : UTF-8 Plain Text
Продолжительность : 1 ч. 32 м.
Битрейт : 41 бит/сек
Count of elements : 1004
Размер потока : 28,0 Кбайт (0%)
Заголовок : FULL
Язык : English
Default : Нет
Forced : Нет

Меню
00:00:00.000 : en:Chapter 01
00:02:56.509 : en:Chapter 02
00:07:10.638 : en:Chapter 03
00:12:08.894 : en:Chapter 04
00:17:19.955 : en:Chapter 05
00:21:40.799 : en:Chapter 06
00:25:58.390 : en:Chapter 07
00:32:11.554 : en:Chapter 08
00:36:58.049 : en:Chapter 09
00:42:33.509 : en:Chapter 10
00:47:48.657 : en:Chapter 11
00:50:47.669 : en:Chapter 12
00:56:48.947 : en:Chapter 13
01:02:56.314 : en:Chapter 14
01:08:28.270 : en:Chapter 15
01:12:40.606 : en:Chapter 16
01:20:00.629 : en:Chapter 17
01:24:22.265 : en:Chapter 18
01:28:46.070 : en:Chapter 19
01:32:49.564 : en:Chapter 20

[/font] Релиз от:




реклама партнёра


Вернуться к началу
 Профиль Отправить личное сообщение  
 
   Похожие торренты   Автор   Торрент   Размер 
В этой теме нет новых непрочитанных сообщений. Кубо. Легенда о самурае / Kubo and the Two Strіngs (Мультфильм, полнометражный, фэнтези, приключения, семейный, 2016) BDRip 1080p от ExKinoRay | iTunes

marya111

109 | 27

12.85 ГБ

В этой теме нет новых непрочитанных сообщений. Кубо. Легенда о самурае / Kubo and the Two Strіngs (Мультфильм, полнометражный, фэнтези, приключения, семейный, 2016) BDRip 720p от ExKinoRay | L

marya111

126 | 7

5.16 ГБ

В этой теме нет новых непрочитанных сообщений. Кубо. Легенда о самурае / Kubo and the Two Strіngs [Мультфильм, полнометражный, фэнтези, 2016] BDRip 720p, Dub [iTunes]

salma3

170 | 17

6.1 ГБ

В этой теме нет новых непрочитанных сообщений. Кубо. Легенда о самурае / Kubo and the Two Strіngs [Мультфильм, полнометражный, фэнтези, 2016] BDRip 1080p, Dub+Sub [Лицензия]

salma3

0 | 0

7.14 ГБ

В этой теме нет новых непрочитанных сообщений. Кубо. Легенда о самурае / Kubo and the Two Strіngs (Мультфильм, фэнтези, приключения, семейный, 2016) BDRip 1080p | 3D | HOU | L

marya111

44 | 33

12.27 ГБ

В этой теме нет новых непрочитанных сообщений. Кубо. Легенда о самурае / Kubo and the Two Strіngs [Мультфильм, полнометражный, фэнтези, 2016] BDRemux 1080p, Dub+Sub [3D-Video] [Лицензия]

salma3

16 | 39

37.66 ГБ

В этой теме нет новых непрочитанных сообщений. Кубо. Легенда о самурае / Kubo and the Two Strіngs ( Мультфильм, фэнтези, приключения, семейный, 2016) HDRip от Generalfilm | КПК | iTunes

marya111

61 | 16

380.5 МБ


Начать новую тему Ответить на тему  [ 1 сообщение ] 




Для Мосгорсуда, Роскомнадзора и рекламодателей:: mosgorsud-torrent[собачка]yandex.ru