Торрент файл
скачать торрент магнет ссылка Добавлен: 04 янв 2017, 14:57
Размер: 745.54 МБ
Сидеров: 82
Личеров: 8
Автор

СообщениеДобавлено: 04 янв 2017, 14:57 

Не в сети
Дата регистрации:
28 сен 2016, 18:10
Спасибо: 213 / 0
Сообщения: 1999
Информация о фильме
Название: Барби и команда шпионов
Оригинальное название: Barbie: Spy Squad
Год выхода: 2016
Страна: США, Канада
Жанр: мультфильм, семейный
Режиссер: Конрад Хелтен / Conrad Helten
В ролях: Стефани Шех, Дженни Пеллисер, Бриттни Ирвин, Брайан Добсон, Ребекка Хусейн, Кэти Уэслак, Йен Хэнлин, Джонатан Холмс
Слоган: «Three gymnasts become secret agents»
О фильме: Барби, Тереза и Рене — грациозные и изящные гимнастки, которые все свое время посвящают сложным тренировкам и зрелищным, фееричным выступлениям. Когда их выдающиеся гимнастические навыки замечает глава шпионского агентства, девушек привлекают к секретной операции по поимке ловкой воровки. И с этого момента Барби и ее подруги становятся тайными агентами!
Благодаря отличной физической подготовке, неотразимой внешности, командному духу, суперкостюмам и помощи роботов-питомцев, Барби и подружки смогут блестяще выполнить свою секретную миссию.




Продолжительность: 01:15:25
Перевод: Профессиональный (полное дублирование)
Субтитры: отсутствуют
Файл
Кодек: XviD
Качество: BDRip
Видео: 656x368 (1.78:1), 23.976 fps, XviD build 73 ~1244 kbps avg, 0.22 bit/pixel
Аудио: 48 kHz, MPEG Layer 3, 2 ch, ~128.00 kbps avg



General
Complete name : G:Barbie_Spy_Squad_BDRip_DUB.avi
Format : AVI
Format/Info : Audio Video Interleave
File size : 746 MiB
Duration : 1h 15mn
Overall bit rate : 1 382 Kbps
Movie name : Barbie: Spy Squad [ripped by domin8]
Genre : Child's
Writing application : VirtualDubMod 1.5.10.3 | www.virtualdub-fr.org || (build 2550/release)
Original source form/Name : Cartoon
Video #0
ID : 0
Format : MPEG-4 Visual
Format profile : Advanced Simple@L5
Format settings, BVOP : Yes
Format settings, QPel : No
Format settings, GMC : No warppoints
Format settings, Matrix : Default (H.263)
Codec ID : XVID
Codec ID/Hint : XviD
Duration : 1h 15mn
Bit rate : 1 245 Kbps
Width : 656 pixels
Height : 368 pixels
Display aspect ratio : 16:9
Frame rate : 23.976 fps
Color space : YUV
Chroma subsampling : 4:2:0
Bit depth : 8 bits
Scan type : Progressive
Bits/(Pixel*Frame) : 0.215
Stream size : 671 MiB (90%)
Writing library : XviD 73
Audio #1
ID : 1
Format : MPEG Audio
Format version : Version 1
Format profile : Layer 3
Codec ID : 55
Codec ID/Hint : MP3
Duration : 1h 15mn
Bit rate mode : Constant
Bit rate : 128 Kbps
Channel(s) : 2 channels
Sampling rate : 48.0 KHz
Stream size : 69.1 MiB (9%)
Alignment : Aligned on interleaves
Interleave, duration : 42 ms (1.00 video frame)
Interleave, preload duration : 504 ms
Title : rus
Writing library : LAME3.99r
Encoding settings : -m s -V 4 -q 0 -lowpass 17 -b 128

Автор рипа: domin8




реклама партнёра


Вернуться к началу
 Профиль Отправить личное сообщение  
 
   Похожие торренты   Автор   Торрент   Размер 
В этой теме нет новых непрочитанных сообщений. Барби и команда шпионов / Barbie: Spy Squad [мультфильм, семейный, 2016] BDRip, Dub [Лицензия]

salma3

80 | 8

1.47 ГБ

В этой теме нет новых непрочитанных сообщений. Барби и её сестры в погоне за щенками / Barbie & Her Sisters in a Puppy Chase [Мультфильм, полнометражный, детский, семейный, приключения, 2016] BDRip 720p, Dub [iTunes]

salma3

32 | 20

3.48 ГБ

В этой теме нет новых непрочитанных сообщений. Барби и её сестры в погоне за щенками / Barbie & Her Sisters in a Puppy Chase [Мультфильм, полнометражный, детский, 2016] HDRip, Dub [iTunes]

salma3

328 | 114

1.37 ГБ

В этой теме нет новых непрочитанных сообщений. Барби: Виртуальный мир / Barbie Video Game Hero [Мультфильм, полнометражный, детский, 2017] BDRip, Dub [iTunes]

salma3

146 | 123

1.01 ГБ

В этой теме нет новых непрочитанных сообщений. Барби: Виртуальный мир / Barbie Video Game Hero [Мультфильм, полнометражный, детский, 2017] BDRip 720p, Dub [iTunes]

salma3

124 | 37

2.06 ГБ

В этой теме нет новых непрочитанных сообщений. Гуфи и его команда / Goof Troop [S01-02] [мультфильм, комедия, семейный, музыка, 1992-1993] WEB-DL 1080p, Dub

salma3

8 | 53

52.54 ГБ

В этой теме нет новых непрочитанных сообщений. Зверопой / Sing [мультфильм, комедия, семейный, 2016] BDRip-AVC, Dub+Sub [Лицензия]

salma3

832 | 261

2.02 ГБ


Начать новую тему Ответить на тему  [ 1 сообщение ] 




Для Мосгорсуда, Роскомнадзора и рекламодателей:: mosgorsud-torrent[собачка]yandex.ru
cron