Торрент файл
скачать торрент магнет ссылка Добавлен: 04 янв 2017, 14:57
Размер: 1.08 ГБ
Сидеров: 109
Личеров: 12
Автор

СообщениеДобавлено: 04 янв 2017, 14:57 

Не в сети
Дата регистрации:
28 сен 2016, 18:10
Спасибо: 211 / 0
Сообщения: 1999
Информация о фильме
Название: Буба (booba)
Год выхода: 2014-2016
Страна: Россия, 3D Sparrow
Жанр: Мультсериал, детский, приключения, комедия
Продолжительность: 15 х ~ 00:03:35, 2 х ~ 00:01:00
Язык: русский

Режиссеры: Сергей Горобец, Леонид Рахманин, Алексей Котеночкин, Евгений Шиняев и Михаил Ткаченко, Анна Соловьева, Сергей Павлутин

Роли озвучивали: Роман Карев

О фильме: Буба (Booba) — смешной и любопытный домовой. Он игрив и любознателен как ребёнок, отчего регулярно попадает в переделки. Остаётся тайной, как этот герой пропустил век эволюции общества, отчего он только сейчас познаёт плоды технического прогресса. Неуклюжий Буба превратит порядок в хаос, но это будет весело!

01. Кухня
02. Ванная комната
03. Детская комната
04. Кабинет
05. Игровая комната
06. Кабинет биологии
07. Свеча
08. Гараж
09. Чердак
10. Бабочка
11. Мышеловка
12. Картина
13. Кондитерская
14. Цирк
15. Праздник

Бонус:
001. Кондитерская (мини-серия)
002. Буба и розетка



Доп. информация:
Семпл



Файл
Формат: MP4
Качество: WEB-DLRip 1080p
Видео: MPEG4-AVC, High@L4, 1920x1080 (16:9), ~ 2 085 Kbps, 25.000 fps
Звук: 44.1 KHz, AAC-LC 2.0, 192 Kbps

08. Гараж. Full-HD-merci-.mp4
Формат : MPEG-4
Профиль формата : Base Media
Идентификатор кодека : isom (isom/mp42)
Размер файла : 64,5 Мбайт
Продолжительность : 3 м. 56 с.
Режим общего битрейта : Переменный
Общий поток : 2283 Кбит/сек
Дата кодирования : UTC 2016-10-21 13:27:48
Дата пометки : UTC 2016-10-21 13:27:48
Программа кодирования : My MP4Box GUI 0.6.0.6

Видео
Идентификатор : 1
Формат : AVC
Формат/Информация : Advanced Video Codec
Профиль формата : High@L4
Параметр CABAC формата : Да
Параметр ReFrames формата : 3 кадра
Идентификатор кодека : avc1
Идентификатор кодека/Информация : Advanced Video Coding
Продолжительность : 3 м. 56 с.
Продолжительность оригинала : 3 м. 56 с.
Битрейт : 2085 Кбит/сек
Ширина : 1920 пикселей
Высота : 1080 пикселей
Соотношение сторон : 16:9
Режим частоты кадров : Постоянный
Частота кадров : 25,000 кадров/сек
Цветовое пространство : YUV
Субдискретизация насыщенности : 4:2:0
Битовая глубина : 8 бит
Тип развёртки : Прогрессивная
Бит/(Пиксели*Кадры) : 0.040
Размер потока : 58,9 Мбайт (91%)
Размер потока оригинала : 58,9 Мбайт (91%)
Язык : English
Дата кодирования : UTC 2016-10-21 13:27:48
Дата пометки : UTC 2016-10-21 13:27:48
Цветовой диапазон : Limited
Основные цвета : BT.709
Характеристики трансфера : BT.709
Коэффициенты матрицы : BT.709
mdhd_Duration : 236939

Аудио
Идентификатор : 2
Формат : AAC
Формат/Информация : Advanced Audio Codec
Профиль формата : LC
Идентификатор кодека : 40
Продолжительность : 3 м. 56 с.
Вид битрейта : Переменный
Битрейт : 192 Кбит/сек
Каналы : 2 канала
Расположение каналов : Front: L R
Частота : 48,0 КГц
Частота кадров : 46,875 кадров/сек (1024 spf)
Метод сжатия : С потерями
Размер потока : 5,41 Мбайт (8%)
Язык : English
Дата кодирования : UTC 2016-10-21 13:27:48
Дата пометки : UTC 2016-10-21 13:27:48
mdhd_Duration : 236925



Добавил эпизоды:
+ 14 - 29.11.2016
+ 15 - 03.01.2017

Релиз от:
Автор релиза: /




реклама партнёра


Вернуться к началу
 Профиль Отправить личное сообщение  
 
   Похожие торренты   Автор   Торрент   Размер 
В этой теме нет новых непрочитанных сообщений. Буба (booba) [1-13 + Бонусы] (Мультсериал, детский, приключения, комедия, 2014-2016) WEB-DLRip 1080p от ExKinoRay

marya111

138 | 17

975.38 МБ

В этой теме нет новых непрочитанных сообщений. Марин и его друзья. Подводные истории / Bubble Marin [s01 + Бонусы] (Мультсериал, мультфильм, приключения, детский, 2014-2015) WEB-DLRip 1080p от ExKinoRay | D (Карусель)

marya111

25 | 6

13.59 ГБ

В этой теме нет новых непрочитанных сообщений. Бумажки [01-62] (Мультсериал, детский, семейный, приключения, 2015-2016) WEB-DLRip 1080p от ExKinoRay

marya111

0 | 0

5.33 ГБ

В этой теме нет новых непрочитанных сообщений. Три кота [01-38] ( Мультсериал, детский, приключения, комедия, 2015-2016) WEB-DLRip от ExKinoRay

marya111

49 | 11

2.21 ГБ

В этой теме нет новых непрочитанных сообщений. Три кота [01-38] (Мультсериал, детский, приключения, комедия, 2015-2016) WEB-DLRip 720p от ExKinoRay

marya111

120 | 37

1.55 ГБ

В этой теме нет новых непрочитанных сообщений. Три кота [01-39] ( Мультсериал, детский, приключения, комедия, 2015-2016) WEB-DLRip 720p от ExKinoRay

marya111

78 | 13

1.6 ГБ

В этой теме нет новых непрочитанных сообщений. Тима и Тома [01-41] (Мультсериал, рисованный, детский, комедия, приключения, 2015-2016) WEB-DLRip от ExKinoRay

marya111

51 | 12

2 ГБ


Начать новую тему Ответить на тему  [ 1 сообщение ] 




Для Мосгорсуда, Роскомнадзора и рекламодателей:: mosgorsud-torrent[собачка]yandex.ru