Торрент файл
скачать торрент магнет ссылка Добавлен: 02 янв 2017, 15:32
Размер: 694.68 МБ
Сидеров: 88
Личеров: 49
Автор

СообщениеДобавлено: 02 янв 2017, 15:32 

Не в сети
Дата регистрации:
28 сен 2016, 18:10
Спасибо: 204 / 0
Сообщения: 2003
Информация о фильме
Название: Сказочный патруль (Fantasy Patrol)
Год выхода: 2016
Страна: Россия, ООО "Паровоз"
Жанр: Мультсериал, рисованный, детский
Продолжительность: 5 х ~ 00:11:00
Язык: Русский

Режиссер: Наиль Мубинов

Роли озвучивали: Мирослава Карпович, Полина Кутепова, Ольга Кузьмина, Юлия Александрова, Иван Жвакин, Ёла Санько ...

О фильме: События мультсериала происходят в таинственном городе Мышкин — музее сказок «под открытым небом». Город наполнен сказочными героями, необычными приключениями и чудесами, а его жители думают, что это всего лишь постановочное шоу для привлечения туристов.Главные персонажи мультсериала — четыре подруги. На первый взгляд, девочки, как девочки — учатся в школе, секретничают и даже ссорятся. В общем, обычная жизнь. Но на самом деле подружки — Снежа, Маша, Аленка и Варя — волшебницы. Они общаются с магическими и загадочными существами. Интересно, а зачем?! Их главная задача — сохранить спокойствие города, не нарушить баланс между миром сказок и людей.

Ох, и непростое это ремесло… волшебство.

01. Знакомство
02. Кошки-мышки
03. Танцуют все!
04. Как стать звездой
05. Загадай желание!



Доп. информация:
Семпл



Файл
Формат: AVI
Качество: WEB-DLRip
Видео: 720x400 (1.80:1), 25 fps, XviD build 65 ~1600 kbps avg, 0.22 bit/pixel
Звук: 48 kHz, AC3 Dolby Digital, 2/0 (L,R) ch, ~192.00 kbps avg
Субтитры: нет

05. Загадай желание! XviD-merci-.avi
Format : AVI
Format/Info : Audio Video Interleave
File size : 142 MiB
Duration : 11 min 0 s
Overall bit rate : 1 803 kb/s
Writing application : VirtualDubMod 1.5.10.3 | www.virtualdub-fr.org || (build 2550/release)
Writing library : VirtualDubMod build 2550/release

Video
ID : 0
Format : MPEG-4 Visual
Format profile : Advanced Simple@L5
Format settings, BVOP : 1
Format settings, QPel : No
Format settings, GMC : No warppoints
Format settings, Matrix : Default (MPEG)
Codec ID : XVID
Codec ID/Hint : XviD
Duration : 11 min 0 s
Bit rate : 1 601 kb/s
Width : 720 pixels
Height : 400 pixels
Display aspect ratio : 16:9
Frame rate : 25.000 FPS
Color space : YUV
Chroma subsampling : 4:2:0
Bit depth : 8 bits
Scan type : Progressive
Compression mode : Lossy
Bits/(Pixel*Frame) : 0.222
Stream size : 126 MiB (89%)
Writing library : XviD 65

Audio
ID : 1
Format : AC-3
Format/Info : Audio Coding 3
Mode extension : CM (complete main)
Format settings, Endianness : Big
Codec ID : 2000
Duration : 11 min 0 s
Bit rate mode : Constant
Bit rate : 192 kb/s
Channel(s) : 2 channels
Channel positions : Front: L R
Sampling rate : 48.0 kHz
Frame rate : 31.250 FPS (1536 spf)
Bit depth : 16 bits
Compression mode : Lossy
Stream size : 15.1 MiB (11%)
Alignment : Split accross interleaves
Interleave, duration : 40 ms (1.00 video frame)
Interleave, preload duratio : 500 ms



Релиз от:
Автор релиза: /




реклама партнёра


Вернуться к началу
 Профиль Отправить личное сообщение  
 
   Похожие торренты   Автор   Торрент   Размер 
В этой теме нет новых непрочитанных сообщений. Тима и Тома [01-41] (Мультсериал, рисованный, детский, комедия, приключения, 2015-2016) WEB-DLRip от ExKinoRay

marya111

51 | 12

2 ГБ

В этой теме нет новых непрочитанных сообщений. Ангел Бэби [01x01-16,02x17-23 из ?] (Мультсериал, рисованный, детский, обучающий, 2015-2016) WEB-DLRip от ExKinoRay

marya111

0 | 0

1.96 ГБ

В этой теме нет новых непрочитанных сообщений. Жила-была царевна [01x01-08 + 10 бонусов] (Мультсериал, рисованный, детский, обучающий, познавательный, 2013-2016) WEB-DLRip от ExKinoRay

marya111

56 | 25

794.05 МБ

В этой теме нет новых непрочитанных сообщений. Буренка Даша [01-23] (Мультсериал, рисованный, детский, познавательный, обучающий, развивающий, караоке, 2015-2016) WEB-DLRip 1080p от ExKinoRay

marya111

66 | 23

919.73 МБ

В этой теме нет новых непрочитанных сообщений. Малышарики [01-55 + 34 бонуса] (Обучающий, мультфильм, рисованный, детский, 2015-2016) WEB-DLRip от ExKinoRay

marya111

49 | 34

2.36 ГБ

В этой теме нет новых непрочитанных сообщений. Малышарики [01-56 + 36 бонуса] (Обучающий, мультфильм, рисованный, детский, 2015-2016) WEB-DLRip от ExKinoRay

marya111

81 | 31

2.42 ГБ

В этой теме нет новых непрочитанных сообщений. Домовёнок Плюх / PLUH [01x01-20] (Мультсериал, детский, рисованный, комедия, 2014-2015) WEB-DL 1080p от ExKinoRay

marya111

67 | 7

753.4 МБ


Начать новую тему Ответить на тему  [ 1 сообщение ] 




Для Мосгорсуда, Роскомнадзора и рекламодателей:: mosgorsud-torrent[собачка]yandex.ru