Торрент файл
скачать торрент магнет ссылка Добавлен: 02 янв 2017, 12:03
Размер: 5.04 ГБ
Сидеров: 11
Личеров: 10
Статус: (salma3)
Автор

СообщениеДобавлено: 02 янв 2017, 12:03 

Не в сети
Супермодератор
Аватара пользователя
Дата регистрации:
15 фев 2012, 16:44
Возраст: 28
Спасибо: 6403 / 2128
Сообщения: 37665
Год выхода: 1989
Жанр: Мультфильм, фэнтези, приключения
Режиссер: Брайан Косгров

В ролях: Дэвид Джейсон, Аманда Рут, Анджела Торн, Бэллард Беркли, Майкл Ноулз, Дон Хендерсон, Молли Сугден, Фрэнк Торнтон, Джимми Хибберт

О фильме:
Одной лунной ночью, очаровательный гигант похищает маленькую Софи прямо из кровати сиротского приюта миссис Клонкерс и уносит ее прочь к волшебным, захватывающим и забавным приключениям.
Воодушевленные детским бестселлером Роальда Даля (Чарли и шоколадная фабрика, Джеймс и гигантский персик), победители множества конкурсов Cosgrove Hall Studio и создатели сериалов «Опасный мышонок» и «Ветер в ивах» подарили жизнь этой классической анимационной музыкальной сказке. В отличие от Bloodbottler (Бутылка крови), Fleshlumpeater (Пожиратель плоти) и Bonecruncher (Костегрыз), Большой Дружелюбный Великан – добрый гигант, который задувает сладкие сны в окна детских спален и посылает детям добрые сны. Когда Софи узнает, что чудовищная команда злодеев направляется в Англию, чтобы сожрать невинных мальчиков и девочек, она начинает готовиться к тому, чтобы остановить их раз и навсегда при помощи своего нового довольно крупного друга.
Как отметил автор Роальд Даль, БДВ – это очень нежная и сказочная история в которой рассказывается о удивительной дружбе между маленькой девочкой и великана с большим сердцем.



Страна: Великобритания
Студия: Cosgrove Hall Films
Продолжительность: 01:31:19
Перевод: Авторский (одноголосый, закадровый) | А. Дольский

Файл
Формат: MKV
Источник: The BFG 1989 1080p GBR Blu-ray AVC LPCM 2.0-BaggerInc
Видео: 1280x720 at 23.976 fps, x264, CRF, L4.1, ~6 198 kbps avg
Аудио #1: Russian: 48 kHz, AC3, 1/0 (L,R) ch, ~192 kbps avg |Одноголосый закадровый, А. Дольский|
Аудио #2: English: 48 kHz/16-bit, DTS, 2/0 (L,R) ch, ~ 1536 kbps avg
Субтитры: English

ЦитатаКто-то писал:
Сохранены оригинальные главы как на Blu-ray.
За ремукс спасибо pyha

General
Unique ID : 228022732905200360593333364355743814006 (0xAB8B94B7D95B0DD685B9256644871176)
Complete name : E:КиноThe.BFG.1989.720p.BluRay.Rus.Eng.HDCLUB.mkv
Format : Matroska
Format version : Version 2
File size : 5.04 GiB
Duration : 1 h 31 min
Overall bit rate : 7 903 kb/s
Movie name : The BFG (1989) - Release for HDCLUB
Encoded date : UTC 2016-11-03 11:00:03
Writing application : mkvmerge v5.7.0 ('The Whirlwind') built on Jul 8 2012 20:08:51
Writing library : libebml v1.2.3 + libmatroska v1.3.0

Video
ID : 1
Format : AVC
Format/Info : Advanced Video Codec
Format profile : High@L4.1
Format settings, CABAC : Yes
Format settings, ReFrames : 9 frames
Codec ID : V_MPEG4/ISO/AVC
Duration : 1 h 31 min
Bit rate : 6 044 kb/s
Width : 1 280 pixels
Height : 720 pixels
Display aspect ratio : 16:9
Frame rate mode : Constant
Frame rate : 23.976 (24000/1001) FPS
Original frame rate : 23.976 (23976/1000) FPS
Color space : YUV
Chroma subsampling : 4:2:0
Bit depth : 8 bits
Scan type : Progressive
Bits/(Pixel*Frame) : 0.274
Stream size : 3.86 GiB (76%)
Writing library : x264 core 142 r2431+42 c69a006 tMod [8-bit@4:2:0 X86_64]
Encoding settings : cabac=1 / ref=9 / deblock=1:-3:-3 / analyse=0x3:0x133 / me=umh / subme=10 / psy=1 / fade_compensate=0.00 / psy_rd=1.00:0.00 / mixed_ref=1 / me_range=32 / chroma_me=1 / trellis=2 / 8x8dct=1 / cqm=0 / deadzone=21,11 / fast_pskip=0 / chroma_qp_offset=-2 / threads=12 / lookahead_threads=2 / sliced_threads=0 / nr=0 / decimate=0 / interlaced=0 / bluray_compat=0 / constrained_intra=0 / fgo=0 / bframes=9 / b_pyramid=2 / b_adapt=2 / b_bias=0 / direct=3 / weightb=1 / open_gop=0 / weightp=2 / keyint=250 / keyint_min=23 / scenecut=40 / intra_refresh=0 / rc_lookahead=60 / rc=crf / mbtree=0 / crf=19.0000 / qcomp=0.65 / qpmin=0:0:0 / qpmax=69:69:69 / qpstep=4 / vbv_maxrate=50000 / vbv_bufsize=62500 / crf_max=0.0 / nal_hrd=none / filler=0 / ip_ratio=1.35 / pb_ratio=1.25 / aq=3:0.77 / aq-sensitivity=10.00 / aq-factor=1.00:1.00:1.00 / aq2=0 / aq3=0
Language : English
Default : Yes
Forced : No

Audio #1
ID : 2
Format : AC-3
Format/Info : Audio Coding 3
Mode extension : CM (complete main)
Format settings, Endianness : Big
Codec ID : A_AC3
Duration : 1 h 31 min
Bit rate mode : Constant
Bit rate : 192 kb/s
Channel(s) : 1 channel
Channel positions : Front: C
Sampling rate : 48.0 kHz
Frame rate : 31.250 FPS (1536 spf)
Bit depth : 16 bits
Compression mode : Lossy
Stream size : 125 MiB (2%)
Title : |Одноголосый закадровый, А. Дольский|
Language : Russian
Default : Yes
Forced : No

Audio #2
ID : 3
Format : DTS
Format/Info : Digital Theater Systems
Mode : 16
Format settings, Endianness : Big
Codec ID : A_DTS
Duration : 1 h 31 min
Bit rate mode : Constant
Bit rate : 1 510 kb/s
Channel(s) : 2 channels
Channel positions : Front: L R
Sampling rate : 48.0 kHz
Frame rate : 93.750 FPS (512 spf)
Bit depth : 16 bits
Compression mode : Lossy
Stream size : 986 MiB (19%)
Language : English
Default : No
Forced : No

Text
ID : 4
Format : UTF-8
Codec ID : S_TEXT/UTF8
Codec ID/Info : UTF-8 Plain Text
Language : English
Default : No
Forced : No

Menu
00:00:00.000 : en:00:00:00.000
00:08:45.358 : en:00:08:45.358
00:16:57.141 : en:00:16:57.141
00:22:42.861 : en:00:22:42.861
00:30:57.814 : en:00:30:57.814
00:39:58.813 : en:00:39:58.813
00:47:51.243 : en:00:47:51.243
00:55:30.077 : en:00:55:30.077
01:02:24.991 : en:01:02:24.991
01:08:50.460 : en:01:08:50.460
01:14:22.124 : en:01:14:22.124
01:22:15.514 : en:01:22:15.514


_________________
Проголосуй за трекер Открытый торрент трекер - RUS-MEDIA.ORG

Проголосуй Открытый торрент трекер - RUS-MEDIA.ORG



реклама партнёра


Вернуться к началу
 Профиль Отправить личное сообщение  
 
   Похожие торренты   Автор   Торрент   Размер 
В этой теме нет новых непрочитанных сообщений. Большой и дружелюбный великан / The BFG [Мультфильм, фэнтези, приключения, 1989] BDRemux 1080p, Avo

salma3

6 | 15

21.65 ГБ

В этой теме нет новых непрочитанных сообщений. Большой и добрый великан / The BFG [фэнтези, приключения, семейный, 2016] BDRip 720p, Dub [iPad] [Лицензия]

salma3

0 | 0

2.26 ГБ

В этой теме нет новых непрочитанных сообщений. Большой и добрый великан / The BFG [фэнтези, приключения, семейный, 2016] BDRip-AVC, Dub [iTunes]

salma3

68 | 20

2.19 ГБ

В этой теме нет новых непрочитанных сообщений. Большой и добрый великан / The BFG (Фэнтези, экранизация, приключения, семейный, 2016) BDRip-AVC | Line

marya111

99 | 9

965.28 МБ

В этой теме нет новых непрочитанных сообщений. Большой и добрый великан / The BFG [Фэнтези, приключения, семейный, 2016] BDRip 1080p, Dub+Sub [3D-Video] [Лицензия]

salma3

152 | 40

8.09 ГБ

В этой теме нет новых непрочитанных сообщений. Большой и добрый великан / The BFG [Фэнтези, приключения, семейный, 2016] BDRip 1080p, Dub+Sub [3D-Video] [Лицензия]

salma3

54 | 22

7.27 ГБ

В этой теме нет новых непрочитанных сообщений. Большой и добрый великан / The BFG [Фэнтези, экранизация, приключения, семейный, 2016] BDRip 1080р, Dub [Чистый звук]

salma3

621 | 48

11.65 ГБ


Начать новую тему Ответить на тему  [ 1 сообщение ] 




Для Мосгорсуда, Роскомнадзора и рекламодателей:: mosgorsud-torrent[собачка]yandex.ru