Торрент файл
скачать торрент магнет ссылка Добавлен: 29 дек 2016, 19:51
Размер: 3.94 ГБ
Сидеров: 28
Личеров: 11
Автор

СообщениеДобавлено: 29 дек 2016, 19:51 

Не в сети
Дата регистрации:
28 сен 2016, 18:10
Спасибо: 205 / 0
Сообщения: 2003
Информация о фильме
Название: Колобанга. Только для пользователей интернета
Год выпуска: 2015-2016
Страна: Россия, Студия "Колобанга"
Жанр: Мультсериал, приключения, детектив, детский
Сезон: 1, 2
Продолжительность: 26 х ~ 00:12:05
Язык: русский
Режиссёры: Александр Романец, Вячеслав Марченко
Озвучивали: Илья Дорогов, Екатерина Тарасова, Сергей Васин, Валерий Медвелев, Олег Кучин, Алексей Маланьин, Денис Заречнов, Никита Погодаев, Анастасия Сагайдак, Александр Романец, Александр Домарацкий, Татьяна Ивлева, Дмитрий Звягинцев, Валерий Хамин, Евгений Куликов, Эрнест Корнышев, Елена Шемякина, Вячеслав Марченко, Дмитрий Хозин, Юрий Павлов, Майя Салимуллина
Описание: В городке Колобанга живут всем известные смайлы-колобки. Они отвечают за электронную переписку Антона и передают в сообщениях его эмоции. Жизнь колобков вполне можно было бы назвать веселой и беззаботной, если бы не одно происшествие: однажды из Колобанги похищают почтовую собачку Атоса. Пока Сыщик устраивает допросы и ищет свидетелей, смелые друзья Колобок, Умник и Челка пускаются в невероятную Интернет-авантюру с неожиданной развязкой…
s1e01. И все-таки он существует!
s1e02. Таинственное исчезновение
s1e03. Первые подозреваемые
s1e04. Проверка на вирусы.Безрезультатно
s1e05. Интернет-портал
s1e06. По ту сторону Интернета
s1e07. Охота на Майдума
s1e08. Спасение Глюка
s1e09. Удалить любой ценой!
s1e10. В поисках Гангстера
s1e11. Добро пожаловать в Фидонет!
s1e12. Чего хотят инопланетяне?
s2e13. Неожиданный гость
s2e14. Встреча с Оракулом
s2e15. Цветное предсказание
s2e16. Щит радости
s2e17. Интернет-сёрфинг
s2e18. Безумный отряд
s2e19. Тайник
s2e20. Маячок Полифагуса
s2e21. Социальная сеть
s2e22. Побег
s2e23. Спам-атака
s2e24. Исходный код
s2e25. Вторжение
s2e26. Мы еще встретимся!

Доп. информация:
Официальный сайт / Семпл
Файл
Формат: AVI
Качество: WEB-DLRip
Видео: 720x400 (1.80:1), 25 fps, XviD build 65 ~1601 kbps avg, 0.22 bit/pixel
Аудио: 48 kHz, AC3 Dolby Digital, 2/0 (L,R) ch, ~192.00 kbps avg
s2e16. Щит радости. XviD-merci-.avi
Format : AVI
Format/Info : Audio Video Interleave
File size : 155 MiB
Duration : 12 min 0 s
Overall bit rate : 1 803 kb/s
Writing application : VirtualDubMod 1.5.10.3 | www.virtualdub-fr.org || (build 2550/release)
Writing library : VirtualDubMod build 2550/release
Video
ID : 0
Format : MPEG-4 Visual
Format profile : Advanced Simple@L5
Format settings, BVOP : 1
Format settings, QPel : No
Format settings, GMC : No warppoints
Format settings, Matrix : Default (MPEG)
Codec ID : XVID
Codec ID/Hint : XviD
Duration : 12 min 0 s
Bit rate : 1 602 kb/s
Width : 720 pixels
Height : 400 pixels
Display aspect ratio : 16:9
Frame rate : 25.000 FPS
Color space : YUV
Chroma subsampling : 4:2:0
Bit depth : 8 bits
Scan type : Progressive
Compression mode : Lossy
Bits/(Pixel*Frame) : 0.222
Stream size : 137 MiB (89%)
Writing library : XviD 65
Audio
ID : 1
Format : AC-3
Format/Info : Audio Coding 3
Mode extension : CM (complete main)
Format settings, Endianness : Big
Codec ID : 2000
Duration : 12 min 0 s
Bit rate mode : Constant
Bit rate : 192 kb/s
Channel(s) : 2 channels
Channel positions : Front: L R
Sampling rate : 48.0 kHz
Frame rate : 31.250 FPS (1536 spf)
Bit depth : 16 bits
Compression mode : Lossy
Stream size : 16.5 MiB (11%)
Alignment : Split accross interleaves
Interleave, duration : 40 ms (1.00 video frame)
Interleave, preload duratio : 500 ms


Релиз от:
Автор релиза: /




реклама партнёра


Вернуться к началу
 Профиль Отправить личное сообщение  
 
   Похожие торренты   Автор   Торрент   Размер 
В этой теме нет новых непрочитанных сообщений. Колобанга. Только для пользователей интернета [s01,s02] (Мультсериал, приключения, детектив, детский, 2015-2016) WEB-DLRip 720p от ExKinoRay

marya111

27 | 22

3.26 ГБ

В этой теме нет новых непрочитанных сообщений. Три кота [01-38] ( Мультсериал, детский, приключения, комедия, 2015-2016) WEB-DLRip от ExKinoRay

marya111

49 | 11

2.21 ГБ

В этой теме нет новых непрочитанных сообщений. Бумажки [01-62] (Мультсериал, детский, семейный, приключения, 2015-2016) WEB-DLRip 1080p от ExKinoRay

marya111

0 | 0

5.33 ГБ

В этой теме нет новых непрочитанных сообщений. Три кота [01-38] (Мультсериал, детский, приключения, комедия, 2015-2016) WEB-DLRip 720p от ExKinoRay

marya111

120 | 37

1.55 ГБ

В этой теме нет новых непрочитанных сообщений. Три кота [01-39] ( Мультсериал, детский, приключения, комедия, 2015-2016) WEB-DLRip 720p от ExKinoRay

marya111

78 | 13

1.6 ГБ

В этой теме нет новых непрочитанных сообщений. Тима и Тома [01-41] (Мультсериал, рисованный, детский, комедия, приключения, 2015-2016) WEB-DLRip от ExKinoRay

marya111

51 | 12

2 ГБ

В этой теме нет новых непрочитанных сообщений. Ангел Бэби [01x01-16,02x17-23 из ?] (Мультсериал, рисованный, детский, обучающий, 2015-2016) WEB-DLRip от ExKinoRay

marya111

0 | 0

1.96 ГБ


Начать новую тему Ответить на тему  [ 1 сообщение ] 




Для Мосгорсуда, Роскомнадзора и рекламодателей:: mosgorsud-torrent[собачка]yandex.ru