Торрент файл
скачать торрент магнет ссылка Добавлен: 26 дек 2016, 20:08
Размер: 919.73 МБ
Сидеров: 66
Личеров: 23
Автор

СообщениеДобавлено: 26 дек 2016, 20:08 

Не в сети
Дата регистрации:
28 сен 2016, 18:10
Спасибо: 205 / 0
Сообщения: 2003
Информация о фильме
Название: Буренка Даша
Год выпуска: 2015-2016
Страна: Беларусь, Plumus
Жанр: Мультсериал, рисованный, детский, познавательный, обучающий, развивающий, караоке
Продолжительность: 23 х ~ 00:02:25
Язык: русский
Режиссёры: Александр Брухнов, Виталий Захаров, Сергей Чернышёв
Озвучивали: Анастасия Федорцова, Илия Федорцова, Олег Лихорад
Описание: Буренка Даша» - это уникальный мультипликационный караоке-проект основанный на народных песнях и сказках, а также на авторских историях о главных персонажах. Каждая песня – это увлекательное путешествие, в которое дружная семья Даши приглашает детей и их родителей. В игровой форме мы будем учиться народной мудрости, вместе с любимыми героями узнаем много нового и интересного, совершим невероятные открытия и, конечно, будем петь песни и веселиться!
01. Маму очень я люблю
02. Баю-баюшки баю
03. Борька - художник
04. Два веселых гуся
05. В лесу родилась елочка
06. Му-му-му
07. Топотушки
08. Борька-чистюля
09. Каравай
10. Жил был у бабушки серенький козлик
11. Ладушки
12. Борька учится считать
13. Сорока-белобока
14. Га-га-га
15. День детей
16. Идет коза рогатая
17. Зоопарк
18. Петушок- золотой гребешок
19. Калинка-Малинка
20. Самый лучший папа
21. Божья коровка
22. Ням-ням-нямочки
23. Моя мама - фея

Доп. информация:
Семпл
Файл
Формат: MP4
Качество: WEB-DLRip 1080p
Видео: MPEG4-AVC, 1920x1080 (16:9), 25 fps, ~ 2 575 kbps, 0.050 bit/pixel
Аудио: 48,0 kHz, AАC-LC, 2.0, ~192 kbps
23. Моя мама - фея. Full-HD-merci-.mp4
Format : MPEG-4
Format profile : Base Media
Codec ID : isom (isom/avc1/iso6)
File size : 48.1 MiB
Duration : 2 min 25 s
Overall bit rate mode : Variable
Overall bit rate : 2 770 kb/s
Encoded date : UTC 2016-12-24 16:25:41
Tagged date : UTC 2016-12-24 16:25:41
Writing application : My MP4Box GUI 0.6.0.6
Video
ID : 1
Format : AVC
Format/Info : Advanced Video Codec
Format profile : High@L4
Format settings, CABAC : Yes
Format settings, ReFrames : 3 frames
Codec ID : avc1
Codec ID/Info : Advanced Video Coding
Duration : 2 min 25 s
Bit rate : 2 575 kb/s
Maximum bit rate : 6 791 kb/s
Width : 1 920 pixels
Height : 1 080 pixels
Display aspect ratio : 16:9
Frame rate mode : Constant
Frame rate : 25.000 FPS
Color space : YUV
Chroma subsampling : 4:2:0
Bit depth : 8 bits
Scan type : Progressive
Bits/(Pixel*Frame) : 0.050
Stream size : 44.7 MiB (93%)
Title : 23.h264
Encoded date : UTC 2016-12-24 16:25:41
Tagged date : UTC 2016-12-24 16:25:43
Color range : Limited
Color primaries : BT.709
Transfer characteristics : BT.709
Matrix coefficients : BT.709
Audio
ID : 2
Format : AAC
Format/Info : Advanced Audio Codec
Format profile : LC
Codec ID : 40
Duration : 2 min 25 s
Bit rate mode : Variable
Bit rate : 192 kb/s
Maximum bit rate : 200 kb/s
Channel(s) : 2 channels
Channel positions : Front: L R
Sampling rate : 48.0 kHz
Frame rate : 46.875 FPS (1024 spf)
Compression mode : Lossy
Stream size : 3.34 MiB (7%)
Title : 23.aac
Encoded date : UTC 2016-12-24 16:25:43
Tagged date : UTC 2016-12-24 16:25:43


Релиз от:
Автор релиза: /




реклама партнёра


Вернуться к началу
 Профиль Отправить личное сообщение  
 
   Похожие торренты   Автор   Торрент   Размер 
В этой теме нет новых непрочитанных сообщений. Жила-была царевна [01x01-08 + 10 бонусов] (Мультсериал, рисованный, детский, обучающий, познавательный, 2013-2016) WEB-DLRip от ExKinoRay

marya111

56 | 25

794.05 МБ

В этой теме нет новых непрочитанных сообщений. Ангел Бэби [01x01-16,02x17-23 из ?] (Мультсериал, рисованный, детский, обучающий, 2015-2016) WEB-DLRip от ExKinoRay

marya111

0 | 0

1.96 ГБ

В этой теме нет новых непрочитанных сообщений. Киока / Kioka [01-11] ( Мультсериал, детский, обучающий, познавательный, 2015) WEB-DLRip 1080p от ExKinoRay | D

marya111

9 | 2

1.11 ГБ

В этой теме нет новых непрочитанных сообщений. Малышарики [01-55 + 34 бонуса] (Обучающий, мультфильм, рисованный, детский, 2015-2016) WEB-DLRip от ExKinoRay

marya111

49 | 34

2.36 ГБ

В этой теме нет новых непрочитанных сообщений. Малышарики [01-56 + 36 бонуса] (Обучающий, мультфильм, рисованный, детский, 2015-2016) WEB-DLRip от ExKinoRay

marya111

81 | 31

2.42 ГБ

В этой теме нет новых непрочитанных сообщений. Тима и Тома [01-41] (Мультсериал, рисованный, детский, комедия, приключения, 2015-2016) WEB-DLRip от ExKinoRay

marya111

51 | 12

2 ГБ

В этой теме нет новых непрочитанных сообщений. Сказочный патруль [01-05] ( Мультсериал, рисованный, детский, 2016) WEB-DLRip от ExKinoRay

marya111

88 | 49

694.68 МБ


Начать новую тему Ответить на тему  [ 1 сообщение ] 




Для Мосгорсуда, Роскомнадзора и рекламодателей:: mosgorsud-torrent[собачка]yandex.ru