Торрент файл
скачать торрент магнет ссылка Добавлен: 25 дек 2016, 19:20
Размер: 274.78 МБ
Сидеров: 328
Личеров: 12
Автор

СообщениеДобавлено: 25 дек 2016, 19:20 

Не в сети
Дата регистрации:
28 сен 2016, 18:10
Спасибо: 208 / 0
Сообщения: 1999
Информация о фильме
Оригинальное название: Маша и Медведь: С любимыми не расставайтесь
Год выхода: 2016
Страна: Россия, Студия "Анимаккорд"
Жанр: Мультсериал, сказка, детский, семейный
Продолжительность: 00:07:08
Язык: русский
Режиссер: Георгий Орлов
Режиссёр озвучивания: Алина Кукушкина
Роли озвучивали:
Маша - Варвара Саранцева
Песня "Про время" - исполняет Алина Кукушкина
О фильме:
Приходит волшебное время чудес! Маша с нетерпением ждёт новогодних подарков- новых кукол и игрушек…однако ее старые друзья, похоже, на неё обиделись. Маше приходится ответить на непростой вопрос: как сохранить дружбу и не растерять старых друзей в погоне за новогодними желаниями?




Файл
Формат: MKV
Качество: WEB-DL 1080p
Видео: MPEG4-AVC, High@L4, 1920x1080 (16:9), ~ 5 080 Kbps, 25.000 fps
Звук: 48.0 KHz, AC3 2.0, 192 Kbps
Субтитры: нет
61. С любимыми не расставайтесь. WEB-DL.1080p.-merci-.mkv
Format : Matroska
Format version : Version 2
File size : 275 MiB
Duration : 7 min 8 s
Overall bit rate : 5 380 kb/s
Writing application : libmatroska 1.4.1
Writing library : SolveigMM Matroska Muxer Version 1.0.1502.18
Video
ID : 1
Format : AVC
Format/Info : Advanced Video Codec
Format profile : High@L4
Format settings, CABAC : Yes
Format settings, ReFrames : 2 frames
Codec ID : V_MPEG4/ISO/AVC
Duration : 7 min 8 s
Bit rate : 5 080 kb/s
Width : 1 920 pixels
Height : 1 080 pixels
Display aspect ratio : 16:9
Frame rate mode : Constant
Frame rate : 25.000 FPS
Color space : YUV
Chroma subsampling : 4:2:0
Bit depth : 8 bits
Scan type : Progressive
Bits/(Pixel*Frame) : 0.098
Stream size : 260 MiB (94%)
Default : No
Forced : No
Color range : Limited
Color primaries : BT.709
Transfer characteristics : BT.709
Matrix coefficients : BT.709
Audio
ID : 2
Format : AC-3
Format/Info : Audio Coding 3
Mode extension : CM (complete main)
Format settings, Endianness : Big
Codec ID : A_AC3
Duration : 7 min 8 s
Bit rate mode : Constant
Bit rate : 192 kb/s
Channel(s) : 2 channels
Channel positions : Front: L R
Sampling rate : 48.0 kHz
Frame rate : 31.250 FPS (1536 spf)
Bit depth : 16 bits
Compression mode : Lossy
Stream size : 9.81 MiB (4%)
Default : No
Forced : No


Релиз от:
Автор релиза: /




реклама партнёра


Вернуться к началу
 Профиль Отправить личное сообщение  
 
   Похожие торренты   Автор   Торрент   Размер 
В этой теме нет новых непрочитанных сообщений. Маша и медведь: С любимыми не расставайтесь [61] (Мультсериал, компьютерная анимация, сказка, детский, семейный, 2016) WEB-DL 1080p от GeneralFilm

marya111

862 | 19

196.71 МБ

В этой теме нет новых непрочитанных сообщений. Маша и медведь: Game Over [59] ( Мультсериал, сказка, детский, семейный, 2016) WEB-DL 1080p от ExKinoRay

marya111

186 | 2

276.84 МБ

В этой теме нет новых непрочитанных сообщений. Маша и медведь: Спи, моя радость, усни! [62] ( Мультсериал, сказка, детский, семейный, 2017) WEB-DLRip от ExKinoRay

marya111

399 | 19

111.72 МБ

В этой теме нет новых непрочитанных сообщений. Маша и медведь: Три Машкетёра [64] [Мультсериал, сказка, детский, семейный, 2017] WEB-DLRip

salma3

157 | 8

128.1 МБ

В этой теме нет новых непрочитанных сообщений. Маша и медведь: Праздник урожая [50] (Олег Кузовков, Олег Ужинов, Денис Червяцов) [Мультсериал, сказка, детский, семейный, 2015] WEB-DL 1080p

Dracon

1594 | 59

204.72 МБ

В этой теме нет новых непрочитанных сообщений. Маша и Медведь. Неуловимые мстители [51] (Олег Кузовков, Олег Ужинов, Денис Червяцов) [Мультсериал, сказка, детский, семейный, 2015] WEB-DLRip 1080p

Dracon

10 | 0

189.29 МБ

В этой теме нет новых непрочитанных сообщений. Маша и медведь: Дорогая передача [49] (Олег Кузовков, Владислав Байрамгулов) [Мультсериал, сказка, детский, семейный. 2014] WEBRip

Dracon

441 | 8

98.12 МБ


Начать новую тему Ответить на тему  [ 1 сообщение ] 




Для Мосгорсуда, Роскомнадзора и рекламодателей:: mosgorsud-torrent[собачка]yandex.ru