Торрент файл
скачать торрент магнет ссылка Добавлен: 24 дек 2016, 17:15
Размер: 2.04 ГБ
Сидеров: 141
Личеров: 21
Автор

СообщениеДобавлено: 24 дек 2016, 17:15 

Не в сети
Дата регистрации:
28 сен 2016, 18:10
Спасибо: 210 / 0
Сообщения: 1999
Информация о фильме
Название: Леди Икс
Оригинальное название: Frozen
Год выхода: 2013 / 2016
Жанр: пародия, комедия, мультфильм, мюзикл, юмористический перевод
Режиссер: Крис Бак, Дженнифер Ли, Гном Пасаран
В ролях: Кристен Белл, Идина Мензел, Джонатан Грофф, Джош Гад, Сантино Фонтана, Алан Тьюдик, Киаран Хайндс, Крис Уильямс, Стивен Дж. Андерсон, Майа Уилсон
О фильме:
Смешной перевод мультфильма "Холодное сердце".
Это сказка о двух великосветских дамах и их большой, но чистой любви. Пикантности в сюжет добавляет то, что они являются друг другу биологическими родственницами – единоутробными законнорождёнными сёстрами. Причём у одной из сестёр есть отмороженная суперсила и страстное желание вершить страшное зло. Или страшное желание вершить страстное зло. Или это просто история о том, как Людей Икс не любят люди-неиксы — история с песнями, плясками, мутантами, интригами, дровами, докторами и говорящими снеговиками.
Страна: США
Продолжительность: 01:31:25
Перевод: Любительский многоголосый (смешной перевод студии deBohpodast')
Файл
Качество: BDRip-AVC
Формат: MKV
Видео: MPEG-4 AVC, H264, 1152x512, 2900 kbps, 23.976 fps
Аудио: 48 kHz, AC-3, 2 ch, ~320 kbps avg
Семпл
Примечание автора раздачи:
Релиз от Альянса Вольных Переводчиков.
Пародия монтажная - видеоряд "Холодного сердца" перемонтирован, присутствуют вставки из других мультфильмов и фильмов.
Ненормативная лексика отсутствует.
Официальный сайт
Холодное сердце
Во все тяжкие
Гравити Фолз
Красавица и Чудовище
Мартин Лютер Кинг. Смерть в Мемфисе
Остров проклятых
Послезавтра
Принцесса и лягушка
Ральф
Тёмный рыцарь: Возрождение легенды, часть 1
Хоббит: Нежданное путешествие
Хоббит: Битва пяти воинств
Хроники Нарнии


General
Unique ID : 204603352206476738787842395125740815227 (0x99ED2C1A202C4B9883B0F6DEC3F9437B)
Complete name : D:__==film_FLady.X.2016.BDRip-AVC.mkv
Format : Matroska
Format version : Version 2
File size : 2.04 GiB
Duration : 1h 31mn
Overall bit rate : 3 198 Kbps
Encoded date : UTC 2007-01-09 22:30:17
Writing application : mkvmerge v7.8.0 ('River Man') 32bit built on Apr 3 2015 12:11:22
Writing library : libebml v1.3.1 + libmatroska v1.4.2
Video
ID : 1
Format : AVC
Format/Info : Advanced Video Codec
Format profile : High@L4.1
Format settings, CABAC : Yes
Format settings, ReFrames : 5 frames
Codec ID : V_MPEG4/ISO/AVC
Duration : 1h 31mn
Bit rate : 2 900 Kbps
Width : 1 152 pixels
Height : 512 pixels
Display aspect ratio : 2.25:1
Frame rate mode : Constant
Frame rate : 23.976 (24000/1001) fps
Color space : YUV
Chroma subsampling : 4:2:0
Bit depth : 8 bits
Scan type : Progressive
Bits/(Pixel*Frame) : 0.205
Stream size : 1.80 GiB (88%)
Writing library : x264 core 146 r2538 121396c
Encoding settings : cabac=1 / ref=5 / deblock=1:-1:-1 / analyse=0x3:0x113 / me=umh / subme=7 / psy=1 / psy_rd=1.00:0.10 / mixed_ref=1 / me_range=16 / chroma_me=1 / trellis=2 / 8x8dct=1 / cqm=0 / deadzone=21,11 / fast_pskip=0 / chroma_qp_offset=-3 / threads=1 / lookahead_threads=1 / sliced_threads=0 / nr=0 / decimate=1 / interlaced=0 / bluray_compat=0 / constrained_intra=0 / bframes=3 / b_pyramid=2 / b_adapt=2 / b_bias=0 / direct=1 / weightb=1 / open_gop=0 / weightp=2 / keyint=250 / keyint_min=23 / scenecut=40 / intra_refresh=0 / rc_lookahead=50 / rc=abr / mbtree=1 / bitrate=2900 / ratetol=1.0 / qcomp=0.60 / qpmin=0 / qpmax=69 / qpstep=4 / vbv_maxrate=50000 / vbv_bufsize=62500 / nal_hrd=none / filler=0 / ip_ratio=1.40 / aq=1:1.00
Default : Yes
Forced : No
Audio
ID : 2
Format : AC-3
Format/Info : Audio Coding 3
Mode extension : CM (complete main)
Format settings, Endianness : Big
Codec ID : A_AC3
Duration : 1h 31mn
Bit rate mode : Constant
Bit rate : 320 Kbps
Channel(s) : 2 channels
Channel positions : Front: L R
Sampling rate : 48.0 KHz
Frame rate : 31.250 fps (1536 spf)
Compression mode : Lossy
Stream size : 209 MiB (10%)
Default : Yes
Forced : No

Релиз от:




реклама партнёра


Вернуться к началу
 Профиль Отправить личное сообщение  
 
   Похожие торренты   Автор   Торрент   Размер 
В этой теме нет новых непрочитанных сообщений. Леди Икс / Frozen (Пародия, комедия, мультфильм, мюзикл, юмористический перевод, 2016) BDRip 720p | Смешной перевод

marya111

144 | 9

3.24 ГБ

В этой теме нет новых непрочитанных сообщений. Доча / Taken [пародия, комедия, юмористический перевод, 2016] HDRip, Avo [Смешной перевод[

marya111

193 | 2

1.6 ГБ

В этой теме нет новых непрочитанных сообщений. Леденец / Hitman [пародия, комедия, юмористический перевод, 2016] HDRip, Dvo [Смешной перевод]

marya111

41 | 5

1.1 ГБ

В этой теме нет новых непрочитанных сообщений. Хоббит и шоколадная фабрика / The Hobbit: The Desolation of Smaug (пародия, комедия, юмористический перевод, 2016) HDRip | Смешной перевод

marya111

629 | 22

1.78 ГБ

В этой теме нет новых непрочитанных сообщений. Ледниковый период 3: Доктор Штоа / Ice Age: Dawn of the Dinosaurs (Карлос Салдана, Agent DieGo) [2015, Пародия, комедия, юмористический перевод, BDRip | Смешной перевод]

Nickolas3435

584 | 13

1.4 ГБ

В этой теме нет новых непрочитанных сообщений. Леди Икс / Frozen (Леди Икс, 2016) BDRip 1080p | Смешной перевод

marya111

108 | 26

7.79 ГБ

В этой теме нет новых непрочитанных сообщений. Фыганатор 2:скудный день / Терминатор 2:судный день / Terminator 2: Judgment Day (фантастический боевик, пародия, смешной перевод, 2017) HDRip | L1

marya111

1091 | 188

2.05 ГБ


Начать новую тему Ответить на тему  [ 1 сообщение ] 




Для Мосгорсуда, Роскомнадзора и рекламодателей:: mosgorsud-torrent[собачка]yandex.ru