Торрент файл
скачать торрент магнет ссылка Добавлен: 23 дек 2016, 22:16
Размер: 5.19 ГБ
Сидеров: 0
Личеров: 2
Автор

СообщениеДобавлено: 23 дек 2016, 22:16 

Не в сети
Дата регистрации:
28 сен 2016, 18:10
Спасибо: 208 / 0
Сообщения: 1999
Информация о фильме
Название: Тайная жизнь домашних животных
Оригинальное название: The Secret Life of Pets
Год выхода: 2016
Жанр: мультфильм, комедия, приключения, семейный
Режиссер: Ярроу Чейни / Yarrow Cheney, Крис Рено / Chris Renaud
Роли озвучивали: Луис С.К., Эрик Стоунстрит, Кевин Харт, Дженни Слейт, Элли Кемпер, Альберт Брукс, Лэйк Белл, Дэна Карви, Хэннибал Бёресс, Бобби Мойнахан
О фильме: Что делают домашние животные пока хозяева пропадают на работе? С тоской смотрят в окно? Смиренно дремлют на коврике у двери? Как бы не так. Они ведут свою тайную жизнь.
«Думаете, они ждут вас у порога весь день?»



Релиз от -
Автор рипа: jaka
Выпущено: Япония, США
Продолжительность: 01:26:27
Перевод 1: Профессиональный (полное дублирование) BD EUR
Перевод 2: Профессиональный (полное дублирование) BD EUR, украинский
Оригинальная аудиодорожка: английская
Субтитры: Русские (полные, форсированные), Украинские (полные, форсированные), Английские (полные, SDH, SDH Colored) (спасибо Elheym)
Главы: присутствуют, сохранены оригинальные
Файл:
Формат: MKV
Качество: BDRip 720p (источник: / Blu-ray Disc [SECRET_LIFE_OF_PETS_UPB3_HDCLUB] / 1080p)
Видео: 1280x694 (1.85:1), 23.976 fps, MPEG-4 AVC, ~6511 kbps avg, 0.306 bit/pixel
Аудио #1: 48 kHz, AC3 Dolby Digital, 3/2 (L,C,R,l,r) + LFE ch, ~640 kbps avg (DUB)
Аудио #2: 48 kHz, AC3 Dolby Digital, 3/2 (L,C,R,l,r) + LFE ch, ~640 kbps avg (UKR)
Аудио #3: 48 kHz, AC3 Dolby Digital, 3/2 (L,C,R,l,r) + LFE ch, ~640 kbps avg (ENG)
Сэмпл: скачать
Размер: 5.19 GB
Уникальный идентификатор : 199777890349632470475475901103402231028 (0x964BD276CA289545A1C49B00C8CDA4F4)
Полное имя : The.Secret.Life.of.Pets.2016.720p.BluRay.Rus.Ukr.Eng.-HQCLUB.mkv
Формат : Matroska
Версия формата : Version 2
Размер файла : 5,19 Гбайт
Продолжительность : 1 ч. 26 м.
Общий поток : 8602 Кбит/сек
Дата кодирования : UTC 2016-12-20 15:42:27
Программа кодирования : mkvmerge v5.2.0 ('I can't explain') built on Dec 18 2011 18:12:03
Библиотека кодирования : libebml v1.2.3 + libmatroska v1.3.0
Обложка : Yes
Attachments : cover.jpg
Видео
Идентификатор : 1
Формат : AVC
Формат/Информация : Advanced Video Codec
Профиль формата : High@L4.1
Параметр CABAC формата : Да
Параметр ReFrames формата : 9 кадров
Идентификатор кодека : V_MPEG4/ISO/AVC
Продолжительность : 1 ч. 26 м.
Битрейт : 6511 Кбит/сек
Ширина : 1280 пикселей
Высота : 694 пикселя
Соотношение сторон : 1,85:1
Режим частоты кадров : Постоянный
Частота кадров : 23,976 (24000/1001) кадра/сек
Цветовое пространство : YUV
Субдискретизация насыщенности : 4:2:0
Битовая глубина : 8 бит
Тип развёртки : Прогрессивная
Бит/(Пиксели*Кадры) : 0.306
Размер потока : 3,93 Гбайт (76%)
Заголовок : Тайная жизнь домашних животных / The Secret Life of Pets (2016) BDRip 720p by jaka
Библиотека кодирования : x264 core 148 r2744 b97ae06
Настройки программы : cabac=1 / ref=9 / deblock=1:-3:-2 / analyse=0x3:0x113 / me=umh / subme=11 / psy=1 / psy_rd=0.84:0.00 / mixed_ref=1 / me_range=32 / chroma_me=1 / trellis=2 / 8x8dct=1 / cqm=0 / deadzone=21,11 / fast_pskip=0 / chroma_qp_offset=-2 / threads=12 / lookahead_threads=3 / sliced_threads=0 / nr=0 / decimate=1 / interlaced=0 / bluray_compat=0 / constrained_intra=0 / bframes=11 / b_pyramid=2 / b_adapt=2 / b_bias=0 / direct=3 / weightb=1 / open_gop=0 / weightp=2 / keyint=230 / keyint_min=23 / scenecut=40 / intra_refresh=0 / rc_lookahead=60 / rc=crf / mbtree=0 / crf=15.8 / qcomp=0.70 / qpmin=0 / qpmax=69 / qpstep=4 / vbv_maxrate=50000 / vbv_bufsize=62500 / crf_max=0.0 / nal_hrd=none / filler=0 / ip_ratio=1.40 / pb_ratio=1.30 / aq=3:1.00 / zones=6974,6994,crf=11.0/7141,7150,crf=11.0/7197,7206,crf=11.0/7237,7332,crf=11.0/8031,8423,crf=11.0/13967,14053,crf=11.0/15558,15767,crf=11.0/22599,22614,crf=11.0/31783,31872,crf=11.0/32494,32509,crf=11.0/33407,33457,crf=11.0/36920,37031,crf=11.0/37137,37219,crf=11.0/38519,38553,crf=11.0/42897,43022,crf=11.0/43179,43249,crf=11.0/43533,43594,crf=11.0/44200,44283,crf=11.0/55818,55916,crf=11.0/56688,56723,crf=11.0/65032,65124,crf=11.0/70433,70575,crf=11.0/80191,80258,crf=11.0/84178,84227,crf=11.0/90015,90030,crf=11.0/99279,99382,crf=11.0/104204,104216,crf=11.0/104363,104438,crf=11.0/104544,104563,crf=11.0/104624,104660,crf=11.0/104739,104784,crf=11.0/110090,110200,crf=11.0/111859,111872,crf=11.0/111995,112048,crf=11.0/113209,113227,crf=11.0/113650,113699,crf=11.0
Язык : English
Default : Да
Forced : Нет
Цветовой диапазон : Limited
Основные цвета : BT.709
Характеристики трансфера : BT.709
Коэффициенты матрицы : BT.709
Statistics Tags Issue : mkvmerge v8.5.2 ('Crosses') 32bit 2016-12-20 14:19:25 / mkvmerge v5.2.0 ('I can't explain') built on Dec 18 2011 18:12:03 2016-12-20 15:42:27
FromStats_BitRate : 6678340
FromStats_Duration : 01:26:27.182000000
FromStats_FrameCount : 124368
FromStats_StreamSize : 4330221079
Аудио #1
Идентификатор : 2
Формат : AC-3
Формат/Информация : Audio Coding 3
Расширение режима : CM (complete main)
Параметр Endianness формата : Big
Идентификатор кодека : A_AC3
Продолжительность : 1 ч. 26 м.
Вид битрейта : Постоянный
Битрейт : 640 Кбит/сек
Каналы : 6 каналов
Расположение каналов : Front: L C R, Side: L R, LFE
Частота : 48,0 КГц
Частота кадров : 31,250 кадров/сек (1536 spf)
Метод сжатия : С потерями
Размер потока : 396 Мбайт (7%)
Заголовок : АС3 5.1 @ 640 kbps - Dub, BD EUR
Язык : Russian
Default : Нет
Forced : Нет
Аудио #2
Идентификатор : 3
Формат : AC-3
Формат/Информация : Audio Coding 3
Расширение режима : CM (complete main)
Параметр Endianness формата : Big
Идентификатор кодека : A_AC3
Продолжительность : 1 ч. 26 м.
Вид битрейта : Постоянный
Битрейт : 640 Кбит/сек
Каналы : 6 каналов
Расположение каналов : Front: L C R, Side: L R, LFE
Частота : 48,0 КГц
Частота кадров : 31,250 кадров/сек (1536 spf)
Метод сжатия : С потерями
Размер потока : 396 Мбайт (7%)
Заголовок : АС3 5.1 @ 640 kbps - Dub, BD EUR
Язык : Ukrainian
Default : Нет
Forced : Нет
Аудио #3
Идентификатор : 4
Формат : AC-3
Формат/Информация : Audio Coding 3
Расширение режима : CM (complete main)
Параметр Endianness формата : Big
Идентификатор кодека : A_AC3
Продолжительность : 1 ч. 26 м.
Вид битрейта : Постоянный
Битрейт : 640 Кбит/сек
Каналы : 6 каналов
Расположение каналов : Front: L C R, Side: L R, LFE
Частота : 48,0 КГц
Частота кадров : 31,250 кадров/сек (1536 spf)
Метод сжатия : С потерями
Размер потока : 396 Мбайт (7%)
Заголовок : АС3 5.1 @ 640 kbps - Original
Язык : English
Default : Нет
Forced : Нет
Текст #1
Идентификатор : 5
Формат : UTF-8
Идентификатор кодека : S_TEXT/UTF8
Идентификатор кодека/Информация : UTF-8 Plain Text
Заголовок : Full
Язык : Russian
Default : Нет
Forced : Нет
Текст #2
Идентификатор : 6
Формат : UTF-8
Идентификатор кодека : S_TEXT/UTF8
Идентификатор кодека/Информация : UTF-8 Plain Text
Заголовок : Forced
Язык : Russian
Default : Да
Forced : Нет
Текст #3
Идентификатор : 7
Формат : UTF-8
Идентификатор кодека : S_TEXT/UTF8
Идентификатор кодека/Информация : UTF-8 Plain Text
Заголовок : Full
Язык : Ukrainian
Default : Нет
Forced : Нет
Текст #4
Идентификатор : 8
Формат : UTF-8
Идентификатор кодека : S_TEXT/UTF8
Идентификатор кодека/Информация : UTF-8 Plain Text
Заголовок : Forced
Язык : Ukrainian
Default : Нет
Forced : Нет
Текст #5
Идентификатор : 9
Формат : UTF-8
Идентификатор кодека : S_TEXT/UTF8
Идентификатор кодека/Информация : UTF-8 Plain Text
Заголовок : Full
Язык : English
Default : Нет
Forced : Нет
Текст #6
Идентификатор : 10
Формат : UTF-8
Идентификатор кодека : S_TEXT/UTF8
Идентификатор кодека/Информация : UTF-8 Plain Text
Заголовок : SDH
Язык : English
Default : Нет
Forced : Нет
Текст #7
Идентификатор : 11
Формат : UTF-8
Идентификатор кодека : S_TEXT/UTF8
Идентификатор кодека/Информация : UTF-8 Plain Text
Заголовок : SDH Colored
Язык : English
Default : Нет
Forced : Нет
Меню
00:00:00.000 : en:
00:05:05.847 : en:
00:09:24.063 : en:
00:13:18.839 : en:
00:18:03.665 : en:
00:22:14.458 : en:
00:28:51.855 : en:
00:32:54.847 : en:
00:36:55.838 : en:
00:42:27.294 : en:
00:44:46.767 : en:
00:50:21.226 : en:
00:54:45.407 : en:
00:59:33.987 : en:
01:02:36.544 : en:
01:07:12.361 : en:
01:13:06.840 : en:
01:16:04.601 : en:
01:18:48.056 : en:
01:19:58.835 : en:

x264 [info]: frame I:1012 Avg QP:13.18 size:185166
x264 [info]: frame P:31951 Avg QP:14.14 size: 64542
x264 [info]: frame B:91405 Avg QP:16.47 size: 22763
x264 [info]: consecutive B-frames: 4.2% 5.6% 12.5% 27.7% 14.4% 27.1% 2.9% 2.5% 0.8% 0.6% 0.8% 0.8%
x264 [info]: ref P L0: 49.8% 10.0% 16.8% 6.1% 5.6% 3.8% 3.4% 1.9% 2.2% 0.2% 0.0%
x264 [info]: ref B L0: 72.8% 12.0% 6.0% 3.2% 2.4% 1.9% 1.3% 0.4%
x264 [info]: ref B L1: 94.7% 5.3%






реклама партнёра


Вернуться к началу
 Профиль Отправить личное сообщение  
 
   Похожие торренты   Автор   Торрент   Размер 
В этой теме нет новых непрочитанных сообщений. Тайная жизнь домашних животных / The Secret Life of Pets (мультфильм, комедия, приключения, семейный, 2016) BDRip от HQCLUB | Лицензия

marya111

9 | 1

1.45 ГБ

В этой теме нет новых непрочитанных сообщений. Тайная жизнь домашних животных / The Secret Life of Pets ( мультфильм, комедия, приключения, семейный, 2016) BDRip 1080p от HQCLUB | D | Лицензия

marya111

45 | 13

9.99 ГБ

В этой теме нет новых непрочитанных сообщений. Тайная жизнь домашних животных / The Secret Life of Pets (мультфильм, комедия, приключения, семейный, 2016) BDRip 720p от Scarabey | Лицензия

marya111

275 | 94

2.66 ГБ

В этой теме нет новых непрочитанных сообщений. Тайная жизнь домашних животных / The Secret Life of Pets (мультфильм, комедия, приключения, семейный, 2016) BDRip от HELLYWOOD | Лицензия

marya111

137 | 11

1.45 ГБ

В этой теме нет новых непрочитанных сообщений. Тайная жизнь домашних животных / The Secret Life of Pets [мультфильм, комедия, семейный, 2016] BDRip, Dub [Лицензия]

salma3

120 | 22

1.45 ГБ

В этой теме нет новых непрочитанных сообщений. Тайная жизнь домашних животных / The Secret Life of Pets [мультфильм, комедия, приключения, семейный, 2016] Blu-ray CEE 1080p, Dub [Лицензия]

salma3

27 | 19

35.46 ГБ

В этой теме нет новых непрочитанных сообщений. Тайная жизнь домашних животных / The Secret Life of Pets [мультфильм, комедия, приключения, семейный, 2016] BDRip-AVC, Dub [iTunes]

salma3

321 | 96

2.14 ГБ


Начать новую тему Ответить на тему  [ 1 сообщение ] 




Для Мосгорсуда, Роскомнадзора и рекламодателей:: mosgorsud-torrent[собачка]yandex.ru