Торрент файл
скачать торрент магнет ссылка Добавлен: 20 дек 2016, 12:44
Размер: 11.85 ГБ
Сидеров: 12
Личеров: 12
Статус: (salma3)
Автор

СообщениеДобавлено: 20 дек 2016, 12:44 

Не в сети
Супермодератор
Аватара пользователя
Дата регистрации:
15 фев 2012, 16:44
Возраст: 27
Спасибо: 5728 / 2111
Сообщения: 25100
Год выхода: 2016
Жанр: Мультфильм, детский, семейный, полнометражный
Режиссер: Ли Гён-хо, Ли Вон-джэ

В ролях: Тейлор Китч, Дженнет МакКарди, Джеймс Вудс, Карла Гуджино, Том Грин, Джон Хидер, Джейсон Мьюз, Джейсон Кравиц, Джим Брюэр, Алексис Лэнг

О фильме:
Когда на город готовится нападение величайшего в истории злодея, когда предложение руки и сердца закончилось грандиозным провалом, а кольцо для любимой девушки потеряно… Только команда Супергероев может спасти ситуацию! Лучшие друзья из парка аттракционов готовятся вступить в битву с реальным злодеем! И они сделают все, чтобы спасти город и помочь своему другу спасти любовь!



Страна: США, Корея Южная
Студия: Digiart Productions, Digital Idea
Продолжительность: 01:21:16
Перевод: Дублированный [iTunes]

Файл
Качество: BDRemux 1080p
Видео: MPEG-4 AVC, 1920x1080, 19.8 Mbit/s, 24.000 fps
Звук:
Аудио #01: 48 kHz, AC3, 5.1, 384 Kbps | Дублированный |
Аудио #02: 48 kHz, AC3, 5.1, 640 kbps | Оригинал |
General
Unique ID : 234526766107901535872929598120215905568 (0xB07036502ABEA483B81444EB35570520)
Complete name : G:VideoBling.2016.BDREMUX.1080p.ExKinoRay.mkv
Format : Matroska
Format version : Version 4 / Version 2
File size : 11.8 GiB
Duration : 1 h 21 min
Overall bit rate mode : Variable
Overall bit rate : 20.9 Mb/s
Movie name : Bling.2016.1080p build by ***селезень***
Encoded date : UTC 2016-12-18 21:11:55
Writing application : mkvmerge v9.6.0 ('Slave To Your Mind') 64bit
Writing library : libebml v1.3.4 + libmatroska v1.4.5
Video
ID : 1
Format : AVC
Format/Info : Advanced Video Codec
Format profile : High@L4.1
Format settings, CABAC : Yes
Format settings, ReFrames : 3 frames
Format settings, GOP : M=3, N=12
Codec ID : V_MPEG4/ISO/AVC
Duration : 1 h 21 min
Bit rate mode : Variable
Bit rate : 19.8 Mb/s
Maximum bit rate : 35.0 Mb/s
Width : 1 920 pixels
Height : 1 080 pixels
Display aspect ratio : 16:9
Frame rate mode : Constant
Frame rate : 24.000 FPS
Standard : NTSC
Color space : YUV
Chroma subsampling : 4:2:0
Bit depth : 8 bits
Scan type : Progressive
Bits/(Pixel*Frame) : 0.399
Stream size : 11.3 GiB (95%)
Title : Bling.2016.1080p build by ***селезень***
Language : English
Default : No
Forced : No
Color range : Limited
Color primaries : BT.709
Transfer characteristics : BT.709
Matrix coefficients : BT.709
Audio #1
ID : 2
Format : AC-3
Format/Info : Audio Coding 3
Mode extension : CM (complete main)
Format settings, Endianness : Big
Codec ID : A_AC3
Duration : 1 h 21 min
Bit rate mode : Constant
Bit rate : 384 kb/s
Channel(s) : 6 channels
Channel positions : Front: L C R, Side: L R, LFE
Sampling rate : 48.0 kHz
Frame rate : 31.250 FPS (1536 spf)
Bit depth : 16 bits
Compression mode : Lossy
Stream size : 223 MiB (2%)
Title : Dub [iTunes]
Language : Russian
Default : Yes
Forced : No
Audio #2
ID : 3
Format : AC-3
Format/Info : Audio Coding 3
Mode extension : CM (complete main)
Format settings, Endianness : Big
Codec ID : A_AC3
Duration : 1 h 21 min
Bit rate mode : Constant
Bit rate : 640 kb/s
Channel(s) : 6 channels
Channel positions : Front: L C R, Side: L R, LFE
Sampling rate : 48.0 kHz
Frame rate : 31.250 FPS (1536 spf)
Bit depth : 16 bits
Compression mode : Lossy
Stream size : 372 MiB (3%)
Title : Original
Language : English
Default : No
Forced : No
Menu
00:00:00.000 : en:Chapter 01
00:09:59.791 : en:Chapter 02
00:20:00.000 : en:Chapter 03
00:30:00.000 : en:Chapter 04
00:39:59.666 : en:Chapter 05
00:49:59.583 : en:Chapter 06
01:00:00.000 : en:Chapter 07
01:09:59.916 : en:Chapter 08

Релиз от: Автор релиза:


_________________
Проголосуй за трекер Открытый торрент трекер - RUS-MEDIA.ORG




реклама партнёра


Вернуться к началу
 Профиль Отправить личное сообщение  
 
   Похожие торренты   Автор   Торрент   Размер 
В этой теме нет новых непрочитанных сообщений. Супергерои / Bling [мультфильм, приключения, 2016] BDRip 1080p, Dub [iTunes]

salma3

701 | 166

5.27 ГБ

В этой теме нет новых непрочитанных сообщений. Супергерои / Bling [мультфильм, 2016] BDRip-AVC, Dub [iTunes]

salma3

488 | 69

2.17 ГБ

В этой теме нет новых непрочитанных сообщений. Супергерои / Bling (мультфильм, 2016) BDRip от ExKinoRay | iTunes

marya111

239 | 36

1.42 ГБ

В этой теме нет новых непрочитанных сообщений. Супергерои / Bling [мультфильм, приключения, 2016] HDRip, Dub [iTunes]

salma3

3348 | 642

1.37 ГБ

В этой теме нет новых непрочитанных сообщений. Супергерои / Bling ( Мультфильм, 2016) BDRip от MegaPeer | iTunes

marya111

94 | 7

1.42 ГБ

В этой теме нет новых непрочитанных сообщений. Супергерои / Bling [мультфильм, 2016] BDRip 720p, Dub [iTunes]

salma3

146 | 41

2.77 ГБ

В этой теме нет новых непрочитанных сообщений. Супергерои / Bling (Мультфильм, 2016) HDRip от MegaPeer | iTunes

marya111

168 | 21

747.33 МБ


Начать новую тему Ответить на тему  [ 1 сообщение ] 




Для Мосгорсуда, Роскомнадзора и рекламодателей:: mosgorsud-torrent[собачка]yandex.ru