Торрент файл
скачать торрент магнет ссылка Добавлен: 14 дек 2016, 13:42
Размер: 3.5 ГБ
Сидеров: 64
Личеров: 18
Статус: (salma3)
Автор

СообщениеДобавлено: 14 дек 2016, 13:42 

Не в сети
Супермодератор
Аватара пользователя
Дата регистрации:
15 фев 2012, 16:44
Возраст: 27
Спасибо: 5545 / 2107
Сообщения: 21335
Год выхода: 1998
Жанр: мультфильм
Режиссер: Пол Сабелла, Гэри Селваджио
В ролях: -Эрнест Боргнайн, Дом ДеЛуиз, Шина Истон, Тейлор Эмерсон, Биби Нойуэрт, Чарльз Нельсон Рейли, Стивен Уэбер, Карлос Алазраки, Бет Андерсон, Ди Брэдли Бейкер

О фильме:
Рождество — особый праздник, провести который лучше всего в кругу семьи и друзей. Вот и собираются Чарли, Итчи, Саша, Карфейс и прочая собачья компания, чтобы разделить на всех праздничное веселье. Все складывалось прекрасно перед началом рождественской вечеринки в кафе «Блошиный Укус»: великолепные подарки, блестящая мишура и даже солидная сумма пожертвований для Тимми — славного щенка, которому срочно требовалась операция на больной лапке. Но ни праздник ни угощения никак не могли обрадовать Карфейса — самого ворчливого из бульдогов, который вовсе не любит рождественских празднеств. Вернее, просто ненавидит их! Вместе со своими дружками — хулиганами он разрабатывает план срыва всеобщего торжества..

Страна: США
Продолжительность: 01:13:25
Перевод: Профессиональный (дублированный), Профессиональный (многоголосый закадровый) НТВ+, Профессиональный (многоголосый закадровый) Союз-Видео, Авторский (одноголосый закадровый) Сергей Визгунов, Авторский (одноголосый закадровый) Александр Кашкин (Первомайский)

Файл
Формат: MKV
Кодек: MPEG-4
Качество: WEB-DL 1080p
Видео: MPEG-4 AVC, 4:3, 1456x1076, 23,976fps, ~4074 kbps
Аудио 1: 48 kHz, AC3 Dolby Digital, 2/0 (L,R) ch, ~192.00 kbps avg (DUB) Варус-Видео
Аудио 2: 48 kHz, FLAC Dolby Digital, 2/0 (L,R) ch, ~691.00 kbps avg (DUB) Варус-Видео
Аудио 3: 48 kHz, AC3 Dolby Digital, 2/0 (L,R) ch, ~192.00 kbps avg (MVO) НТВ+
Аудио 4: 48 kHz, FLAC Dolby Digital, 2/0 (L,R) ch, ~752.00 kbps avg (MVO) Союз-Видео
Аудио 5: 48 kHz, AC3 Dolby Digital, 2/0 (L,R) ch, ~384.00 kbps avg (AVO) Визгунов
Аудио 6: 48 kHz, AC3 Dolby Digital, 2/0 (L,R) ch, ~192.00 kbps avg (AVO) Кашкин (Первомайский)
Аудио 7: 48 kHz, AC3 Dolby Digital, 2/0 (L,R) ch, ~192.00 kbps avg (Украинский)
Аудио 8: 48 kHz, AAC, 2/0 (L,R) ch, ~163 kbps avg (ENG)
Субтитры: SRT (Русские, Английские)
Общее
Уникальный идентификатор : 197126388190598203198875179912194966891 (0x944D29507EE8F146B2460BE88B28456B)
Полное имя : Все собаки празднуют Рождество WEB-DL 1080p.mkv
Формат : Matroska
Версия формата : Version 2
Размер файла : 3,50 Гбайт
Продолжительность : 1 ч. 13 м.
Режим общего битрейта : Переменный
Общий поток : 6831 Кбит/сек
Дата кодирования : UTC 2015-11-26 21:53:40
Программа кодирования : mkvmerge v4.0.0 ('The Stars were mine') сборка от Jun 6 2010 16:18:42
Библиотека кодирования : libebml v1.0.0 + libmatroska v1.0.0
Видео
Идентификатор : 1
Формат : AVC
Формат/Информация : Advanced Video Codec
Профиль формата : High@L4.0
Параметр CABAC формата : Да
Параметр ReFrames формата : 5 кадров
Идентификатор кодека : V_MPEG4/ISO/AVC
Продолжительность : 1 ч. 13 м.
Ширина : 1456 пикселей
Высота : 1076 пикселей
Соотношение сторон : 4:3
Режим частоты кадров : Постоянный
Частота кадров : 23,976 кадра/сек
Цветовое пространство : YUV
Субдискретизация насыщенности : 4:2:0
Битовая глубина : 8 бит
Тип развёртки : Прогрессивная
Язык : English
Default : Нет
Forced : Нет
Основные цвета : BT.709
Характеристики трансфера : BT.709
Коэффициенты матрицы : BT.709
Аудио #1
Идентификатор : 2
Формат : AC-3
Формат/Информация : Audio Coding 3
Расширение режима : CM (complete main)
Параметр Endianness формата : Big
Идентификатор кодека : A_AC3
Продолжительность : 1 ч. 13 м.
Вид битрейта : Постоянный
Битрейт : 192 Кбит/сек
Каналы : 2 канала
Расположение каналов : Front: L R
Частота : 48,0 КГц
Битовая глубина : 16 бит
Метод сжатия : С потерями
Размер потока : 101 Мбайт (3%)
Заголовок : Профессиональный (Дублированный) Варус-Видео
Язык : Russian
Default : Да
Forced : Нет
Аудио #2
Идентификатор : 3
Формат : FLAC
Формат/Информация : Free Lossless Audio Codec
Идентификатор кодека : A_FLAC
Продолжительность : 1 ч. 13 м.
Вид битрейта : Переменный
Каналы : 2 канала
Частота : 48,0 КГц
Битовая глубина : 16 бит
Заголовок : Профессиональный (Дублированный) Варус-Видео
Библиотека кодирования : libFLAC 1.2.1 (UTC 2007-09-17)
Язык : Russian
Default : Нет
Forced : Нет
Аудио #3
Идентификатор : 4
Формат : AC-3
Формат/Информация : Audio Coding 3
Расширение режима : CM (complete main)
Параметр Endianness формата : Big
Идентификатор кодека : A_AC3
Продолжительность : 1 ч. 13 м.
Вид битрейта : Постоянный
Битрейт : 192 Кбит/сек
Каналы : 2 канала
Расположение каналов : Front: L R
Частота : 48,0 КГц
Битовая глубина : 16 бит
Метод сжатия : С потерями
Размер потока : 101 Мбайт (3%)
Заголовок : Профессиональный (Многоголосый закадровый) НТВ+
Язык : Russian
Default : Нет
Forced : Нет
Аудио #4
Идентификатор : 5
Формат : FLAC
Формат/Информация : Free Lossless Audio Codec
Идентификатор кодека : A_FLAC
Продолжительность : 1 ч. 13 м.
Вид битрейта : Переменный
Каналы : 2 канала
Частота : 48,0 КГц
Битовая глубина : 16 бит
Заголовок : Профессиональный (Многоголосый закадровый) Союз-Видео
Библиотека кодирования : libFLAC 1.2.1 (UTC 2007-09-17)
Язык : Russian
Default : Нет
Forced : Нет
Аудио #5
Идентификатор : 6
Формат : AC-3
Формат/Информация : Audio Coding 3
Расширение режима : CM (complete main)
Параметр Endianness формата : Big
Идентификатор кодека : A_AC3
Продолжительность : 1 ч. 13 м.
Вид битрейта : Постоянный
Битрейт : 384 Кбит/сек
Каналы : 2 канала
Расположение каналов : Front: L R
Частота : 48,0 КГц
Битовая глубина : 16 бит
Метод сжатия : С потерями
Размер потока : 202 Мбайт (6%)
Заголовок : Авторский (одноголосый закадровый) С.Визгунов
Язык : Russian
Default : Нет
Forced : Нет
Аудио #6
Идентификатор : 7
Формат : AC-3
Формат/Информация : Audio Coding 3
Расширение режима : CM (complete main)
Параметр Endianness формата : Big
Идентификатор кодека : A_AC3
Продолжительность : 1 ч. 13 м.
Вид битрейта : Постоянный
Битрейт : 192 Кбит/сек
Каналы : 2 канала
Расположение каналов : Front: L R
Частота : 48,0 КГц
Битовая глубина : 16 бит
Метод сжатия : С потерями
Размер потока : 101 Мбайт (3%)
Заголовок : Авторский (одноголосый закадровый) А.Кашкин (Первомайский)
Язык : Russian
Default : Нет
Forced : Нет
Аудио #7
Идентификатор : 8
Формат : AC-3
Формат/Информация : Audio Coding 3
Расширение режима : CM (complete main)
Параметр Endianness формата : Big
Идентификатор кодека : A_AC3
Продолжительность : 1 ч. 13 м.
Вид битрейта : Постоянный
Битрейт : 192 Кбит/сек
Каналы : 2 канала
Расположение каналов : Front: L R
Частота : 48,0 КГц
Битовая глубина : 16 бит
Метод сжатия : С потерями
Размер потока : 101 Мбайт (3%)
Язык : Ukrainian
Default : Нет
Forced : Нет
Аудио #8
Идентификатор : 9
Формат : AAC
Формат/Информация : Advanced Audio Codec
Профиль формата : LC
Идентификатор кодека : A_AAC
Продолжительность : 1 ч. 13 м.
Каналы : 2 канала
Расположение каналов : Front: L R
Частота : 48,0 КГц
Метод сжатия : С потерями
Язык : English
Default : Нет
Forced : Нет
Текст #1
Идентификатор : 10
Формат : UTF-8
Идентификатор кодека : S_TEXT/UTF8
Идентификатор кодека/Информация : UTF-8 Plain Text
Язык : Russian
Default : Нет
Forced : Нет
Текст #2
Идентификатор : 11
Формат : UTF-8
Идентификатор кодека : S_TEXT/UTF8
Идентификатор кодека/Информация : UTF-8 Plain Text
Язык : English
Default : Нет
Forced : Нет
Меню
00:00:00.000 : en:Chapter 1
00:11:17.000 : en:Chapter 2
00:21:34.000 : en:Chapter 3
00:32:04.000 : en:Chapter 4
00:44:06.000 : en:Chapter 5
00:54:04.000 : en:Chapter 6
01:04:12.000 : en:Chapter 7


_________________
Проголосуй за трекер Открытый торрент трекер - RUS-MEDIA.ORG

Не забудьте оставить комментарий!



реклама партнёра


Вернуться к началу
 Профиль Отправить личное сообщение  
 
   Похожие торренты   Автор   Торрент   Размер 
В этой теме нет новых непрочитанных сообщений. Черное Рождество / Black Christmas [ужасы, триллер, 2006] HDDVDRip 1080p, Dub+Avo+Sub

salma3

49 | 18

9.79 ГБ

В этой теме нет новых непрочитанных сообщений. Рождество Чарли Брауна / A Charlie Brown Christmas [мультфильм, комедия, семейный, короткометражка, 1965] BDRip 720p, Mvo

salma3

28 | 11

2.32 ГБ

В этой теме нет новых непрочитанных сообщений. Светлое Рождество / White Christmas [Мюзикл, мелодрама, комедия, 1954] BDRip 1080p, Dvo

salma3

10 | 7

8.7 ГБ

В этой теме нет новых непрочитанных сообщений. Пережить Рождество / Surviving Christmas [комедия, мелодрама, 2004] BDRip 1080p, Dub+Dvo+2Avo+Sub

salma3

10 | 2

12 ГБ

В этой теме нет новых непрочитанных сообщений. Очень странное рождество / Рождество с волшебными родителями / A Fairly Odd Christmas (Сэвидж Стив Холланд) [2012, фэнтези, комедия, семейный, SATRip] DUB

Nickolas3435

35 | 6

1.08 ГБ

В этой теме нет новых непрочитанных сообщений. Эрнест спасает Рождество / Ernest Saves Christmas [фэнтези, комедия, семейный, 1988] WEBRip 1080p, Avo

salma3

13 | 2

9.43 ГБ

В этой теме нет новых непрочитанных сообщений. Не все собаки кусачие / Baby Brother / Some Dogs Bite [драма, 2010] DVDRip, Mvo

salma3

68 | 5

1.46 ГБ


Начать новую тему Ответить на тему  [ 1 сообщение ] 




Для Мосгорсуда, Роскомнадзора и рекламодателей:: mosgorsud-torrent[собачка]yandex.ru