Торрент файл
скачать торрент магнет ссылка Добавлен: 11 дек 2016, 00:52
Размер: 746.02 МБ
Сидеров: 187
Личеров: 32
Автор

СообщениеДобавлено: 11 дек 2016, 00:52 

Не в сети
Супермодератор
Аватара пользователя
Дата регистрации:
15 фев 2012, 16:44
Возраст: 27
Спасибо: 5728 / 2111
Сообщения: 25100
Год выхода: 2015
Страна: США
Жанр: мультфильм, боевик, комедия, приключения
Режиссер: Глен Мураками / Glen Murakami

В ролях: Сет Грин, Шон Эстин, Грег Сайпс, Роб Полсен, Кейт Малгрю, Эрик Бауза, Фред Татаскьор, Джей Би Смув


О фильме: Специальный одночасовой мультфильм "Черепашки Ниндзя", основанный на линейке игрушек "Half-Shell Heroes". Черепашки случайным образом переместятся в Прошлое, где вынуждены будут пройти свой путь через доисторических динозавров и трицератонов для того, чтобы вновь попасть к себе домой в Настоящее.




Продолжительность: 00:44:16
Перевод: Профессиональный (полное дублирование)
Оригинальная аудио дорожка: есть
Субтитры: отсутствуют
Файл
Кодек: XviD
Качество: WEB-DLRip
Видео: 720x400 (1.80:1), 23.976 fps, XviD build 73 ~1957 kbps avg, 0.28 bit/pixel
Аудио #1: Русский: 48 kHz, AC3 Dolby Digital, 2/0 (L,R) ch, ~192.00 kbps avg [Профессиональный (полное дублирование)]
Аудио #2: Английский: 48 kHz, AC3 Dolby Digital, 2/0 (L,R) ch, ~192.00 kbps avg [Оригинал]

General
Complete name : G:Teenage Mutant Ninja Turtles - Half-Shell Heroes Blast to the PastTeenage_Mutant_Ninja_Turtles_-_Half-Shell_Heroes_Blast_to_the_Past.avi
Format : AVI
Format/Info : Audio Video Interleave
File size : 746 MiB
Duration : 44mn 16s
Overall bit rate : 2 356 Kbps
Movie name : Teenage Mutant Ninja Turtles - Half-Shell Heroes: Blast to the Past [ripped by domin8]
Genre : Child's
Writing application : VirtualDubMod 1.5.10.3 | www.virtualdub-fr.org || (build 2550/release)
Writing library : VirtualDubMod build 2550/release
Original source form/Name : Cartoon
Video #0
ID : 0
Format : MPEG-4 Visual
Format profile : Advanced Simple@L5
Format settings, BVOP : Yes
Format settings, QPel : No
Format settings, GMC : No warppoints
Format settings, Matrix : Custom
Codec ID : XVID
Codec ID/Hint : XviD
Duration : 44mn 16s
Bit rate : 1 958 Kbps
Width : 720 pixels
Height : 400 pixels
Display aspect ratio : 16:9
Frame rate : 23.976 fps
Color space : YUV
Chroma subsampling : 4:2:0
Bit depth : 8 bits
Scan type : Progressive
Bits/(Pixel*Frame) : 0.284
Stream size : 620 MiB (83%)
Writing library : XviD 73
Audio #1
ID : 1
Format : AC-3
Format/Info : Audio Coding 3
Mode extension : CM (complete main)
Codec ID : 2000
Duration : 44mn 14s
Bit rate mode : Constant
Bit rate : 192 Kbps
Channel(s) : 2 channels
Channel positions : Front: L R
Sampling rate : 48.0 KHz
Bit depth : 16 bits
Stream size : 60.8 MiB (8%)
Alignment : Split accross interleaves
Interleave, duration : 42 ms (1.00 video frame)
Interleave, preload duration : 500 ms
Title : rus
Audio #2
ID : 2
Format : AC-3
Format/Info : Audio Coding 3
Mode extension : CM (complete main)
Codec ID : 2000
Duration : 44mn 16s
Bit rate mode : Constant
Bit rate : 192 Kbps
Channel(s) : 2 channels
Channel positions : Front: L R
Sampling rate : 48.0 KHz
Bit depth : 16 bits
Video delay : 6s 500ms
Stream size : 60.8 MiB (8%)
Alignment : Split accross interleaves
Interleave, duration : 42 ms (1.00 video frame)
Interleave, preload duration : 500 ms
Title : eng

Автор рипа: domin8


_________________
Проголосуй за трекер Открытый торрент трекер - RUS-MEDIA.ORG




реклама партнёра


Вернуться к началу
 Профиль Отправить личное сообщение  
 
   Похожие торренты   Автор   Торрент   Размер 
В этой теме нет новых непрочитанных сообщений. Черепашки-ниндзя 2 / Teenage Mutant Ninja Turtles: Out of the Shadows [фантастика, боевик, комедия, приключения, 2016] WEB-DLRip, Dub [iTunes]

salma3

12650 | 251

1.46 ГБ

В этой теме нет новых непрочитанных сообщений. Черепашки-ниндзя / Teenage Mutant Ninja Turtles [фантастика, фэнтези, боевик, комедия, приключения, 2014] WEB-DLRip, Dub [iTunes]

Dracon

123 | 4

1.46 ГБ

В этой теме нет новых непрочитанных сообщений. Черепашки-ниндзя 2 / Teenage Mutant Ninja Turtles: Out of the Shadows [фантастика, боевик, комедия, приключения, 2016] BDRip, Dub [Лицензия]

salma3

223 | 6

2.18 ГБ

В этой теме нет новых непрочитанных сообщений. Черепашки-ниндзя / Teenage Mutant Ninja Turtles[фантастика, фэнтези, боевик, комедия, приключения, 2014] BDRip, Dub [Лицензия]

Dracon

110 | 3

1.46 ГБ

В этой теме нет новых непрочитанных сообщений. Черепашки-ниндзя 2 / Teenage Mutant Ninja Turtles: Out of the Shadows [фантастика, боевик, комедия, приключения, 2016] WEB-DL 720p, Dub [iTunes]

marya111

778 | 14

3.58 ГБ

В этой теме нет новых непрочитанных сообщений. Черепашки-ниндзя 2 / Teenage Mutant Ninja Turtles: Out of the Shadows [фантастика, боевик, комедия, приключения, 2016] BDRip, Dub [Лицензия]

salma3

1231 | 50

1.46 ГБ

В этой теме нет новых непрочитанных сообщений. Черепашки-ниндзя / Teenage Mutant Ninja Turtles [фантастика, фэнтези, боевик, комедия, приключения, 2014] BDRip-AVC, Dub+Sub [Лицензия]

Dracon

227 | 5

3 ГБ


Начать новую тему Ответить на тему  [ 1 сообщение ] 




Для Мосгорсуда, Роскомнадзора и рекламодателей:: mosgorsud-torrent[собачка]yandex.ru