Торрент файл
скачать торрент магнет ссылка Добавлен: 06 дек 2016, 22:13
Размер: 1.37 ГБ
Сидеров: 107
Личеров: 19
Автор

СообщениеДобавлено: 06 дек 2016, 22:13 

Не в сети
Дата регистрации:
28 сен 2016, 18:10
Спасибо: 203 / 0
Сообщения: 2003
Информация о фильме
Название: Кунг-фу Панда 3
Оригинальное название: Kung Fu Panda 3
Год выхода: 2016
Жанр: мультфильм, боевик, комедия, приключения, семейный
Режиссер: Алессандро Карлони, Дженнифер Ю
В ролях: Джек Блэк, Брайан Крэнстон, Дастин Хоффман, Анджелина Джоли, Дж.К. Симмонс, Джеки Чан, Сет Роген, Люси Лью, Дэвид Кросс, Кейт Хадсон
О фильме: Воссоединившись со своим давно потерянным отцом, По отправляется в тайный рай для панд, где его ожидает встреча с множеством веселых сородичей. Однако вскоре злодей Кай начинает зачистку — он уничтожает кунг-фу мастеров по всему Китаю. По предстоит сделать невозможное — обучить боевому искусству деревню, полную его веселых, неуклюжих собратьев, и тем самым превратить их в отряд кунг-фу панд.

Выпущено: США, Китай / China Film Co., DreamWorks Animation, Oriental DreamWorks
Продолжительность: 01:34:56
Озвучивание: Дублированное [Лицензия]
Файл
Качество: BDRip-AVC
Видео: MPEG-4 AVC, 1612 Кбит/с, 720x306
Аудио: AC3, 6 ch, 448 Кбит/с
Субтитры: Русские, английские
General
Unique ID : 210089236316986391727739243302914135033 (0x9E0DB712361A9764BD5D9F3EE62493F9)
Complete name : D:Kung.Fu.Panda.3.2016.D.BDRip.AVC.ExKinoRay.mkv
Format : Matroska
Format version : Version 2
File size : 1.37 GiB
Duration : 1 h 34 min
Overall bit rate : 2 061 kb/s
Movie name : Kung Fu Panda 3 (2016) from ExKinoRay
Encoded date : UTC 2016-12-01 16:24:42
Writing application : mkvmerge v7.6.0 ('Garden of Dreams') 32bit built on Feb 11 2015 00:18:47
Writing library : libebml v1.3.1 + libmatroska v1.4.2
Video
ID : 1
Format : AVC
Format/Info : Advanced Video Codec
Format profile : High@L4.1
Format settings, CABAC : Yes
Format settings, ReFrames : 12 frames
Codec ID : V_MPEG4/ISO/AVC
Duration : 1 h 34 min
Bit rate : 1 612 kb/s
Width : 720 pixels
Height : 306 pixels
Display aspect ratio : 2.35:1
Frame rate mode : Constant
Frame rate : 23.976 (24000/1001) FPS
Original frame rate : 23.976 (23976/1000) FPS
Color space : YUV
Chroma subsampling : 4:2:0
Bit depth : 8 bits
Scan type : Progressive
Bits/(Pixel*Frame) : 0.305
Stream size : 1.04 GiB (76%)
Title : Enigma
Writing library : x264 core 144 r2525 40bb568
Encoding settings : cabac=1 / ref=12 / deblock=1:-2:-2 / analyse=0x3:0x113 / me=umh / subme=10 / psy=1 / psy_rd=1.00:0.05 / mixed_ref=1 / me_range=32 / chroma_me=1 / trellis=2 / 8x8dct=1 / cqm=0 / deadzone=21,11 / fast_pskip=1 / chroma_qp_offset=-3 / threads=12 / lookahead_threads=2 / sliced_threads=0 / nr=0 / decimate=1 / interlaced=0 / bluray_compat=0 / constrained_intra=0 / bframes=10 / b_pyramid=2 / b_adapt=2 / b_bias=0 / direct=3 / weightb=1 / open_gop=0 / weightp=2 / keyint=240 / keyint_min=23 / scenecut=40 / intra_refresh=0 / rc_lookahead=40 / rc=2pass / mbtree=0 / bitrate=1612 / ratetol=1.0 / qcomp=0.60 / qpmin=0 / qpmax=51 / qpstep=4 / cplxblur=20.0 / qblur=0.5 / vbv_maxrate=50000 / vbv_bufsize=62500 / nal_hrd=none / filler=0 / ip_ratio=1.40 / pb_ratio=1.30 / aq=1:0.80
Default : Yes
Forced : No
Color range : Limited
Color primaries : BT.709
Transfer characteristics : BT.709
Matrix coefficients : BT.709
Audio
ID : 2
Format : AC-3
Format/Info : Audio Coding 3
Mode extension : CM (complete main)
Format settings, Endianness : Big
Codec ID : A_AC3
Duration : 1 h 34 min
Bit rate mode : Constant
Bit rate : 448 kb/s
Channel(s) : 6 channels
Channel positions : Front: L C R, Side: L R, LFE
Sampling rate : 48.0 kHz
Frame rate : 31.250 FPS (1536 spf)
Compression mode : Lossy
Stream size : 304 MiB (22%)
Title : Dub (Лицензия)
Language : Russian
Default : Yes
Forced : No
Text #1
ID : 3
Format : UTF-8
Codec ID : S_TEXT/UTF8
Codec ID/Info : UTF-8 Plain Text
Title : Rus full
Language : Russian
Default : No
Forced : No
Text #2
ID : 4
Format : UTF-8
Codec ID : S_TEXT/UTF8
Codec ID/Info : UTF-8 Plain Text
Title : Eng full
Language : English
Default : No
Forced : No
Menu
00:00:00.000 : :00:00:00.000
00:05:21.780 : :00:05:21.780
00:08:10.240 : :00:08:10.240
00:10:00.016 : :00:10:00.016
00:12:26.037 : :00:12:26.037
00:15:24.215 : :00:15:24.215
00:19:08.230 : :00:19:08.230
00:24:39.395 : :00:24:39.395
00:30:17.607 : :00:30:17.607
00:33:53.990 : :00:33:53.990
00:36:18.259 : :00:36:18.259
00:39:55.643 : :00:39:55.643
00:43:32.652 : :00:43:32.652
00:46:45.845 : :00:46:45.845
00:51:41.181 : :00:51:41.181
00:56:04.611 : :00:56:04.611
00:59:48.168 : :00:59:48.168
01:02:11.353 : :01:02:11.353
01:05:26.965 : :01:05:26.965
01:10:16.838 : :01:10:16.838
01:14:06.901 : :01:14:06.901
01:17:06.580 : :01:17:06.580
01:20:34.788 : :01:20:34.788
01:24:21.181 : :01:24:21.181


Релиз от:
Автор релиза:




реклама партнёра


Вернуться к началу
 Профиль Отправить личное сообщение  
 
   Похожие торренты   Автор   Торрент   Размер 
В этой теме нет новых непрочитанных сообщений. Кунг-фу Панда 3 / Kung Fu Panda 3 (мультфильм, боевик, комедия, приключения, семейный, 2016) BDRip от HELLYWOOD | Лицензия

marya111

130 | 23

2.19 ГБ

В этой теме нет новых непрочитанных сообщений. Кунг-фу Панда 3 / Kung Fu Panda 3 (Алессандро Карлони, Дженнифер Ю) [2016, Мультфильм, боевик, комедия, приключения, семейный, BDRip-AVC | Лицензия] Dub

marya111

51 | 1

2.45 ГБ

В этой теме нет новых непрочитанных сообщений. Кунг-фу Панда 3 / Kung Fu Panda 3 (Алессандро Карлони, Дженнифер Ю) [2016, мультфильм, боевик, комедия, приключения, семейный, BDRip | Лицензия] Dub

marya111

0 | 0

1.45 ГБ

В этой теме нет новых непрочитанных сообщений. Кунг-фу Панда 3 / Kung Fu Panda 3 [мультфильм, боевик, комедия, приключения, семейный, 2016] Blu-Ray, Dub [Лицензия]

salma3

21 | 9

38.98 ГБ

В этой теме нет новых непрочитанных сообщений. Кунг-фу Панда 3 / Kung Fu Panda 3 (Алессандро Карлони, Дженнифер Ю) [2016, мультфильм, боевик, комедия, приключения, семейный, BDRip 720p | Лицензия] Dub

marya111

0 | 0

4.05 ГБ

В этой теме нет новых непрочитанных сообщений. Кунг-фу Панда 3 / Kung Fu Panda 3 (Алессандро Карлони, Дженнифер Ю) [2016, мультфильм, боевик, комедия, приключения, семейный, BDRip 1080p | Лицензия] Dub

marya111

0 | 0

7.2 ГБ

В этой теме нет новых непрочитанных сообщений. Кунг-фу Панда 3 / Kung Fu Panda 3 (Алессандро Карлони, Дженнифер Ю) [2016, Мультфильм, боевик, комедия, приключения, семейный, HDRip | Лицензия] Dub

marya111

27 | 2

744.91 МБ


Начать новую тему Ответить на тему  [ 1 сообщение ] 




Для Мосгорсуда, Роскомнадзора и рекламодателей:: mosgorsud-torrent[собачка]yandex.ru