Торрент файл
скачать торрент магнет ссылка Добавлен: 06 дек 2016, 22:13
Размер: 7.79 ГБ
Сидеров: 108
Личеров: 26
Автор

СообщениеДобавлено: 06 дек 2016, 22:13 

Не в сети
Дата регистрации:
28 сен 2016, 18:10
Спасибо: 211 / 0
Сообщения: 1999
Информация о фильме
Название: Леди Икс
Оригинальное название: Frozen
Год выхода: 2013 / 2016
Жанр: пародия, комедия, мультфильм, мюзикл, юмористический перевод
Режиссер: Крис Бак, Дженнифер Ли, Гном Пасаран
В ролях: Кристен Белл, Идина Мензел, Джонатан Грофф, Джош Гад, Сантино Фонтана, Алан Тьюдик, Киаран Хайндс, Крис Уильямс, Стивен Дж. Андерсон, Майа Уилсон
О фильме:
Смешной перевод мультфильма "Холодное сердце".
Это сказка о двух великосветских дамах и их большой, но чистой любви. Пикантности в сюжет добавляет то, что они являются друг другу биологическими родственницами – единоутробными законнорождёнными сёстрами. Причём у одной из сестёр есть отмороженная суперсила и страстное желание вершить страшное зло. Или страшное желание вершить страстное зло. Или это просто история о том, как Людей Икс не любят люди-неиксы — история с песнями, плясками, мутантами, интригами, дровами, докторами и говорящими снеговиками.
Страна: США
Продолжительность: 01:31:25
Перевод: Любительский многоголосый (смешной перевод студии deBohpodast')
Файл
Качество: BDRip 1080p
Формат: MKV
Видео: MPEG-4 AVC, H264, 1920x858, 12.0 Mbps, 23.976 fps
Аудио: 48 kHz, AC-3, 2 ch, ~320 kbps avg
Семпл
Примечание автора раздачи:
Релиз от Альянса Вольных Переводчиков.
Пародия монтажная - видеоряд "Холодного сердца" перемонтирован, присутствуют вставки из других мультфильмов и фильмов.
Ненормативная лексика отсутствует.
Официальный сайт
Холодное сердце
Во все тяжкие
Гравити Фолз
Красавица и Чудовище
Мартин Лютер Кинг. Смерть в Мемфисе
Остров проклятых
Послезавтра
Принцесса и лягушка
Ральф
Тёмный рыцарь: Возрождение легенды, часть 1
Хоббит: Нежданное путешествие
Хоббит: Битва пяти воинств
Хроники Нарнии


General
Complete name : G:PROLady.X.2016.BDRip.1080p.mkv
Format : Matroska
File size : 7.79 GiB
Duration : 1h 31mn
Overall bit rate : 12.2 Mbps
Encoded date : UTC 2016-12-01 05:02:26
Writing application : mkvmerge v7.8.0 ('River Man') 32bit built on Apr 3 2015 12:11:22
Writing library : libebml v1.3.1 + libmatroska v1.4.2
Video
ID : 1
Format : AVC
Format/Info : Advanced Video Codec
Format profile : High@L4.1
Format settings, CABAC : Yes
Format settings, ReFrames : 4 frames
Muxing mode : Container profile=Unknown@4.1
Codec ID : V_MPEG4/ISO/AVC
Duration : 1h 31mn
Bit rate : 11.6 Mbps
Nominal bit rate : 12.0 Mbps
Width : 1 920 pixels
Height : 858 pixels
Display aspect ratio : 2.25:1
Frame rate : 23.976 fps
Resolution : 24 bits
Colorimetry : 4:2:0
Scan type : Progressive
Bits/(Pixel*Frame) : 0.295
Stream size : 7.42 GiB (95%)
Writing library : x264 core 148 r2694bm 3b70645
Encoding settings : cabac=1 / ref=3 / deblock=1:-2:-2 / analyse=0x3:0x113 / me=hex / subme=7 / psy=1 / psy_rd=1.00:0.25 / mixed_ref=1 / me_range=16 / chroma_me=1 / trellis=1 / 8x8dct=1 / cqm=0 / deadzone=6,6 / fast_pskip=1 / chroma_qp_offset=-4 / threads=6 / lookahead_threads=1 / sliced_threads=0 / nr=0 / decimate=0 / interlaced=0 / bluray_compat=0 / constrained_intra=0 / bframes=3 / b_pyramid=2 / b_adapt=1 / b_bias=0 / direct=1 / weightb=1 / open_gop=0 / weightp=2 / keyint=250 / keyint_min=23 / scenecut=40 / intra_refresh=0 / rc_lookahead=40 / rc=abr / mbtree=1 / bitrate=12000 / ratetol=1.0 / qcomp=0.80 / qpmin=0 / qpmax=69 / qpstep=4 / ip_ratio=1.10 / aq=1:0.50
Audio
ID : 2
Format : AC-3
Format/Info : Audio Coding 3
Codec ID : A_AC3
Duration : 1h 31mn
Bit rate mode : Constant
Bit rate : 320 Kbps
Channel(s) : 2 channels
Channel positions : L R
Sampling rate : 48.0 KHz
Stream size : 209 MiB (3%)

Релиз от:




реклама партнёра


Вернуться к началу
 Профиль Отправить личное сообщение  
 
   Похожие торренты   Автор   Торрент   Размер 
В этой теме нет новых непрочитанных сообщений. Леди Икс / Frozen ( пародия, комедия, мультфильм, мюзикл, юмористический перевод, 2016) BDRip-AVC | Смешной перевод

marya111

141 | 21

2.04 ГБ

В этой теме нет новых непрочитанных сообщений. Леди Икс / Frozen (Пародия, комедия, мультфильм, мюзикл, юмористический перевод, 2016) BDRip 720p | Смешной перевод

marya111

144 | 9

3.24 ГБ

В этой теме нет новых непрочитанных сообщений. Леди Кровавый Бой / Lady Bloodfight [боевик, 2016] BDRip 1080p, Mvo

salma3

159 | 45

7.73 ГБ

В этой теме нет новых непрочитанных сообщений. Леди Макбет / Lady Macbeth [Драма, 2016] BDRip 1080p, Mvo [iTunes]

salma3

68 | 41

8.64 ГБ

В этой теме нет новых непрочитанных сообщений. Несносные леди / Mother's Day [драма, комедия, 2016] BDRip 1080p, Dub [iTunes]

marya111

0 | 0

12.99 ГБ

В этой теме нет новых непрочитанных сообщений. Лодка «Счастливая леди» / Леди Удача / Lucky Lady [драма, комедия, 1975] HDTVRip 720p, Mvo

salma3

61 | 21

2.04 ГБ

В этой теме нет новых непрочитанных сообщений. Доча / Taken [пародия, комедия, юмористический перевод, 2016] HDRip, Avo [Смешной перевод[

marya111

193 | 2

1.6 ГБ


Начать новую тему Ответить на тему  [ 1 сообщение ] 




Для Мосгорсуда, Роскомнадзора и рекламодателей:: mosgorsud-torrent[собачка]yandex.ru