Торрент файл
скачать торрент магнет ссылка Добавлен: 03 дек 2016, 13:00
Размер: 10.52 ГБ
Сидеров: 288
Личеров: 65
Статус: (salma3)
Автор

СообщениеДобавлено: 03 дек 2016, 13:00 

Не в сети
Супермодератор
Аватара пользователя
Дата регистрации:
15 фев 2012, 16:44
Возраст: 27
Спасибо: 5851 / 2114
Сообщения: 27031
Год выхода: 2016
Жанр: Мультфильм, полнометражный, фэнтези
Режиссер: Трэвис Найт

В ролях: Арт Паркинсон, Шарлиз Терон, Рэйф Файнс, Джордж Такей, Кэри-Хироюки Тагава, Бренда Ваккаро, Руни Мара, Мэттью МакКонахи, Мейрик Мерфи, Мина Нодзи

О фильме:
[color=grey]Юный музыкант Кубо наслаждался безмятежной жизнью на берегу океана. В их небольшом селении никогда не случалось ничего необычного, и никто не ждал перемен. Но они наступили, когда в жизнь юноши и его матери ворвался мятежный дух, жаждущий отмщения. Заново узнавая историю своего происхождения, Кубо открывает в себе новые, ранее неизведанные способности и понимает, что он, в сущности, очень похож на отца, которого никогда не видел — легендарного воина, прославленного самурая, павшего в битве со злом.



Страна: США
Студия: Laika Entertainment
Продолжительность: 01:41:46
Перевод: Любительский многоголосый (закадровый) [Синема Ус]

Файл
Кодек: MPEG-4
Качество: BDRip 1080p
Видео: 1920x800, 12.7 Mbit/s, 23.976 fps
Звук:
Аудио #01: 48 kHz, AC3, 5.1, 640 Kbps |
Аудио #02: 48 kHz, DTS, 5.1, 1510 kbps |
Субтитры: Русские, английские

General
Unique ID : 240167697002903348224732639777355389678 (0xB4AE9DADCD078A58946C1226FD96DAEE)
Complete name : G:VideoKubo.And.The.Two.Str.2016.MVO.BDRip.1080p.ExKinoRay.mkv
Format : Matroska
Format version : Version 4 / Version 2
File size : 10.5 GiB
Duration : 1 h 41 min
Overall bit rate : 14.8 Mb/s
Movie name : Kubo.And.The.Two.Str.2016 ***селезень***
Encoded date : UTC 2016-12-01 17:16:32
Writing application : mkvmerge v8.3.0 ('Over the Horizon') 64bit
Writing library : libebml v1.3.1 + libmatroska v1.4.2
Video
ID : 1
Format : AVC
Format/Info : Advanced Video Codec
Format profile : High@L4.1
Format settings, CABAC : Yes
Format settings, ReFrames : 5 frames
Codec ID : V_MPEG4/ISO/AVC
Duration : 1 h 41 min
Bit rate : 12.7 Mb/s
Width : 1 920 pixels
Height : 800 pixels
Display aspect ratio : 2.40:1
Frame rate mode : Constant
Frame rate : 23.976 (24000/1001) FPS
Color space : YUV
Chroma subsampling : 4:2:0
Bit depth : 8 bits
Scan type : Progressive
Bits/(Pixel*Frame) : 0.344
Stream size : 8.99 GiB (85%)
Title : Kubo.And.The.Two.Str.2016 ***селезень***
Writing library : x264 core 148 r2705kMod 3f5ed56
Encoding settings : cabac=1 / ref=5 / deblock=1:-3:-3 / analyse=0x3:0x133 / me=umh / subme=11 / psy=1 / fade_compensate=0.00 / psy_rd=0.90:0.00 / mixed_ref=1 / me_range=32 / chroma_me=1 / trellis=2 / 8x8dct=1 / cqm=0 / deadzone=21,11 / fast_pskip=0 / chroma_qp_offset=-2 / threads=18 / lookahead_threads=3 / sliced_threads=0 / nr=0 / decimate=0 / interlaced=0 / bluray_compat=0 / constrained_intra=0 / fgo=0 / bframes=8 / b_pyramid=2 / b_adapt=2 / b_bias=0 / direct=3 / weightb=1 / open_gop=0 / weightp=2 / keyint=240 / keyint_min=23 / scenecut=40 / intra_refresh=0 / rc_lookahead=60 / rc=crf / mbtree=0 / crf=15.4000 / qcomp=0.60 / qpmin=0 / qpmax=69 / qpstep=4 / vbv_maxrate=40000 / vbv_bufsize=30000 / crf_max=0.0 / nal_hrd=none / filler=0 / ip_ratio=1.40 / pb_ratio=1.30 / aq=1:0.90
Language : English
Default : Yes
Forced : No
Audio #1
ID : 2
Format : AC-3
Format/Info : Audio Coding 3
Mode extension : CM (complete main)
Format settings, Endianness : Big
Codec ID : A_AC3
Duration : 1 h 41 min
Bit rate mode : Constant
Bit rate : 640 kb/s
Channel(s) : 6 channels
Channel positions : Front: L C R, Side: L R, LFE
Sampling rate : 48.0 kHz
Frame rate : 31.250 FPS (1536 spf)
Bit depth : 16 bits
Compression mode : Lossy
Stream size : 465 MiB (4%)
Title : MVO
Language : Russian
Default : Yes
Forced : No
Audio #2
ID : 3
Format : DTS
Format/Info : Digital Theater Systems
Mode : 16
Format settings, Endianness : Big
Codec ID : A_DTS
Duration : 1 h 41 min
Bit rate mode : Constant
Bit rate : 1 509 kb/s
Channel(s) : 6 channels
Channel positions : Front: L C R, Side: L R, LFE
Sampling rate : 48.0 kHz
Frame rate : 93.750 FPS (512 spf)
Bit depth : 24 bits
Compression mode : Lossy
Stream size : 1.07 GiB (10%)
Title : Original
Language : English
Default : No
Forced : No
Text #1
ID : 4
Format : UTF-8
Codec ID : S_TEXT/UTF8
Codec ID/Info : UTF-8 Plain Text
Duration : 1 h 32 min
Bit rate : 72 b/s
Count of elements : 1014
Stream size : 49.3 KiB (0%)
Title : Full
Language : Russian
Default : No
Forced : No
Text #2
ID : 5
Format : UTF-8
Codec ID : S_TEXT/UTF8
Codec ID/Info : UTF-8 Plain Text
Duration : 1 h 32 min
Bit rate : 41 b/s
Count of elements : 1004
Stream size : 28.0 KiB (0%)
Title : Full
Language : English
Default : No
Forced : No
Text #3
ID : 6
Format : UTF-8
Codec ID : S_TEXT/UTF8
Codec ID/Info : UTF-8 Plain Text
Duration : 1 h 32 min
Bit rate : 46 b/s
Count of elements : 1211
Stream size : 31.7 KiB (0%)
Title : SDH
Language : English
Default : No
Forced : No
Menu
00:00:00.000 : en:00:00:00.000
00:02:56.510 : en:00:02:56.510
00:07:10.639 : en:00:07:10.639
00:12:08.895 : en:00:12:08.895
00:17:19.956 : en:00:17:19.956
00:21:40.799 : en:00:21:40.799
00:25:58.390 : en:00:25:58.390
00:32:11.555 : en:00:32:11.555
00:36:58.049 : en:00:36:58.049
00:42:33.509 : en:00:42:33.509
00:47:48.657 : en:00:47:48.657
00:50:47.670 : en:00:50:47.670
00:56:48.947 : en:00:56:48.947
01:02:56.314 : en:01:02:56.314
01:08:28.271 : en:01:08:28.271
01:12:40.606 : en:01:12:40.606
01:20:00.629 : en:01:20:00.629
01:24:22.266 : en:01:24:22.266
01:28:46.071 : en:01:28:46.071
01:32:49.564 : en:01:32:49.564

Релиз от: Автор релиза:


_________________
Проголосуй за трекер Открытый торрент трекер - RUS-MEDIA.ORG




реклама партнёра


Вернуться к началу
 Профиль Отправить личное сообщение  
 
   Похожие торренты   Автор   Торрент   Размер 
В этой теме нет новых непрочитанных сообщений. Кубо. Легенда о самурае / Kubo and the Two Strіngs (Мультфильм, полнометражный, фэнтези, приключения, семейный, 2016) BDRip 1080p от ExKinoRay | iTunes

marya111

109 | 27

12.85 ГБ

В этой теме нет новых непрочитанных сообщений. Кубо. Легенда о самурае / Kubo and the Two Strіngs (Мультфильм, полнометражный, фэнтези, приключения, семейный, 2016) BDRip 1080p от New-Team & qqss44 | iTunes

marya111

291 | 102

7.57 ГБ

В этой теме нет новых непрочитанных сообщений. Кубо. Легенда о самурае / Kubo and the Two Strіngs [Мультфильм, полнометражный, фэнтези, 2016] BDRip 720p, Dub [iTunes]

salma3

170 | 17

6.1 ГБ

В этой теме нет новых непрочитанных сообщений. Кубо. Легенда о самурае / Kubo and the Two Strіngs (Мультфильм, полнометражный, фэнтези, приключения, семейный, 2016) BDRip 720p от ExKinoRay | L

marya111

126 | 7

5.16 ГБ

В этой теме нет новых непрочитанных сообщений. Кубо. Легенда о самурае / Kubo and the Two Strіngs (Мультфильм, фэнтези, приключения, семейный, 2016) BDRip 1080p | 3D | HOU | L

marya111

44 | 33

12.27 ГБ

В этой теме нет новых непрочитанных сообщений. Кубо. Легенда о самурае / Kubo and the Two Strіngs ( Мультфильм, фэнтези, приключения, семейный, 2016) HDRip от Generalfilm | КПК | iTunes

marya111

61 | 16

380.5 МБ

В этой теме нет новых непрочитанных сообщений. Кубо. Легенда о самурае / Kubo and the Two Strings (мультфильм, фэнтези, приключения, семейный, 2016) BDRip-AVC от HELLYWOOD | iTunes

marya111

202 | 26

1.42 ГБ


Начать новую тему Ответить на тему  [ 1 сообщение ] 




Для Мосгорсуда, Роскомнадзора и рекламодателей:: mosgorsud-torrent[собачка]yandex.ru