Торрент файл
скачать торрент магнет ссылка Добавлен: 03 май 2017, 12:59
Размер: 7.14 ГБ
Сидеров: 16
Личеров: 6
Статус: (salma3)
Автор

СообщениеДобавлено: 03 дек 2016, 13:00 

Не в сети
Супермодератор
Аватара пользователя
Дата регистрации:
15 фев 2012, 16:44
Возраст: 28
Спасибо: 6644 / 2146
Сообщения: 45843
Год выхода: 2016
Жанр: Мультфильм, полнометражный, фэнтези
Режиссер: Трэвис Найт

В ролях: Арт Паркинсон, Шарлиз Терон, Рэйф Файнс, Джордж Такей, Кэри-Хироюки Тагава, Бренда Ваккаро, Руни Мара, Мэттью МакКонахи, Мейрик Мерфи, Мина Нодзи

О фильме:
[color=grey]Юный музыкант Кубо наслаждался безмятежной жизнью на берегу океана. В их небольшом селении никогда не случалось ничего необычного, и никто не ждал перемен. Но они наступили, когда в жизнь юноши и его матери ворвался мятежный дух, жаждущий отмщения. Заново узнавая историю своего происхождения, Кубо открывает в себе новые, ранее неизведанные способности и понимает, что он, в сущности, очень похож на отца, которого никогда не видел — легендарного воина, прославленного самурая, павшего в битве со злом.



Страна: США
Продолжительность: 01:41:36
Перевод: Дублированный[Лицензия]

Файл
Кодек: MPEG-4
Качество: BDRip 1080p
Видео: MPEG-4 AVC, 7327 Кбит/с, 1920x804, 23.976 кадр/с
Аудио: Русский (AC3, 6 ch, 448 Кбит/с), (DTS, 6 ch, 768 Кбит/с), английский (DTS, 6 ch, 1509 Кбит/с)
Субтитры: Русские, английские

Сохранены оригинальные чаптеры как на Blu-Ray.



x264 [info]: frame I:1029 Avg QP:13.69 size:249994
x264 [info]: frame P:36871 Avg QP:16.66 size: 77306
x264 [info]: frame B:108264 Avg QP:17.82 size: 22854
x264 [info]: consecutive B-frames: 3.9% 6.1% 11.5% 23.5% 18.2% 24.8% 6.0% 2.8% 1.1% 0.9% 1.1%
x264 [info]: mb I I16..4: 19.6% 46.2% 34.1%
x264 [info]: mb P I16..4: 7.3% 15.0% 8.4% P16..4: 30.3% 25.3% 9.9% 1.7% 0.2% skip: 2.0%
x264 [info]: mb B I16..4: 3.2% 3.4% 1.4% B16..8: 23.7% 18.0% 3.5% direct: 7.6% skip:39.1% L0:41.9% L1:40.2% BI:18.0%
x264 [info]: 8x8 transform intra:46.1% inter:38.1%
x264 [info]: direct mvs spatial:97.7% temporal:2.3%
x264 [info]: coded y,uvDC,uvAC intra: 72.1% 88.6% 70.7% inter: 24.9% 35.6% 17.5%
x264 [info]: i16 v,h,dc,p: 19% 15% 39% 27%
x264 [info]: i8 v,h,dc,ddl,ddr,vr,hd,vl,hu: 17% 15% 26% 5% 7% 7% 7% 7% 9%
x264 [info]: i4 v,h,dc,ddl,ddr,vr,hd,vl,hu: 24% 11% 39% 4% 6% 5% 5% 4% 4%
x264 [info]: i8c dc,h,v,p: 43% 23% 17% 17%
x264 [info]: Weighted P-Frames: Y:5.6% UV:3.3%
x264 [info]: ref P L0: 50.7% 10.1% 22.6% 6.9% 8.3% 1.3% 0.0%
x264 [info]: ref B L0: 74.3% 18.8% 5.1% 1.8%
x264 [info]: ref B L1: 93.0% 7.0%
x264 [info]: kb/s:7324.94
General
Общее
Уникальный идентификатор : 219434015493207758192810807920971593255 (0xA51574419272289CB20823EE8E55B627)
Полное имя : D:ЗагрузкиKubo.And.The.Two.Strings.2016.x264.BDRip.(1080p).OlLanDGroup.mkv
Формат : Matroska
Версия формата : Version 2
Размер файла : 7,14 Гбайт
Продолжительность : 1 ч. 41 м.
Общий поток : 10,1 Мбит/сек
Название фильма : Кубо. Легенда о самурае.2016.Rip by: ollan
Дата кодирования : UTC 2017-05-02 22:53:38
Программа кодирования : mkvmerge v5.6.0 ('Kenya Kane') built on May 27 2012 16:44:04
Библиотека кодирования : libebml v1.2.3 + libmatroska v1.3.0
Attachements : Cover - Kubo.And.The.Two.Strings.png

Видео
Идентификатор : 1
Формат : AVC
Формат/Информация : Advanced Video Codec
Профиль формата : High@L4.1
Параметр CABAC формата : Да
Параметр ReFrames формата : 5 кадров
Идентификатор кодека : V_MPEG4/ISO/AVC
Продолжительность : 1 ч. 41 м.
Битрейт : 7327 Кбит/сек
Ширина : 1920 пикселей
Высота : 804 пикселя
Соотношение сторон : 2,40:1
Режим частоты кадров : Постоянный
Частота кадров : 23,976 (24000/1001) кадра/сек
Цветовое пространство : YUV
Субдискретизация насыщенности : 4:2:0
Битовая глубина : 8 бит
Тип развёртки : Прогрессивная
Бит/(Пиксели*Кадры) : 0.198
Размер потока : 5,06 Гбайт (71%)
Библиотека кодирования : x264 core 146 r2538 121396c
Настройки программы : cabac=1 / ref=5 / deblock=1:-3:-3 / analyse=0x3:0x133 / me=umh / subme=11 / psy=1 / psy_rd=0.00:0.06 / mixed_ref=1 / me_range=48 / chroma_me=1 / trellis=2 / 8x8dct=1 / cqm=0 / deadzone=21,11 / fast_pskip=0 / chroma_qp_offset=-1 / threads=12 / lookahead_threads=3 / sliced_threads=0 / nr=0 / decimate=0 / interlaced=0 / bluray_compat=0 / constrained_intra=0 / bframes=10 / b_pyramid=2 / b_adapt=2 / b_bias=0 / direct=3 / weightb=1 / open_gop=0 / weightp=2 / keyint=240 / keyint_min=23 / scenecut=40 / intra_refresh=0 / rc_lookahead=40 / rc=2pass / mbtree=0 / bitrate=7327 / ratetol=1.0 / qcomp=0.60 / qpmin=0 / qpmax=69 / qpstep=4 / cplxblur=20.0 / qblur=0.5 / vbv_maxrate=50000 / vbv_bufsize=62500 / nal_hrd=none / filler=0 / ip_ratio=1.40 / pb_ratio=1.30 / aq=1:1.00
Язык : English
Default : Да
Forced : Нет

Аудио #1
Идентификатор : 2
Формат : AC-3
Формат/Информация : Audio Coding 3
Расширение режима : CM (complete main)
Параметр Endianness формата : Big
Идентификатор кодека : A_AC3
Продолжительность : 1 ч. 41 м.
Вид битрейта : Постоянный
Битрейт : 448 Кбит/сек
Каналы : 6 каналов
Расположение каналов : Front: L C R, Side: L R, LFE
Частота : 48,0 КГц
Частота кадров : 31,250 кадров/сек (1536 spf)
Метод сжатия : С потерями
Размер потока : 326 Мбайт (4%)
Заголовок : Дублированный (Лицензия)
Язык : Russian
Default : Да
Forced : Нет

Аудио #2
Идентификатор : 3
Формат : DTS
Формат/Информация : Digital Theater Systems
Режим : 16
Параметр Endianness формата : Big
Идентификатор кодека : A_DTS
Продолжительность : 1 ч. 41 м.
Вид битрейта : Постоянный
Битрейт : 768 Кбит/сек
Каналы : 6 каналов
Расположение каналов : Front: L C R, Side: L R, LFE
Частота : 48,0 КГц
Частота кадров : 93,750 кадра/сек (512 spf)
Битовая глубина : 24 бит
Метод сжатия : С потерями
Размер потока : 558 Мбайт (8%)
Заголовок : Дублированный (Лицензия)
Язык : Russian
Default : Нет
Forced : Нет

Аудио #3
Идентификатор : 4
Формат : DTS
Формат/Информация : Digital Theater Systems
Режим : 16
Параметр Endianness формата : Big
Идентификатор кодека : A_DTS
Продолжительность : 1 ч. 41 м.
Вид битрейта : Постоянный
Битрейт : 1509 Кбит/сек
Каналы : 6 каналов
Расположение каналов : Front: L C R, Side: L R, LFE
Частота : 48,0 КГц
Частота кадров : 93,750 кадра/сек (512 spf)
Битовая глубина : 24 бит
Метод сжатия : С потерями
Размер потока : 1,07 Гбайт (15%)
Язык : English
Default : Нет
Forced : Нет

Текст #1
Идентификатор : 5
Формат : UTF-8
Идентификатор кодека : S_TEXT/UTF8
Идентификатор кодека/Информация : UTF-8 Plain Text
Заголовок : Full
Язык : Russian
Default : Нет
Forced : Нет

Текст #2
Идентификатор : 6
Формат : UTF-8
Идентификатор кодека : S_TEXT/UTF8
Идентификатор кодека/Информация : UTF-8 Plain Text
Заголовок : Full
Язык : English
Default : Нет
Forced : Нет

Меню
00:00:00.000 : en:Chapter 01
00:02:56.508 : en:Chapter 02
00:07:10.637 : en:Chapter 03
00:12:08.894 : en:Chapter 04
00:17:19.954 : en:Chapter 05
00:21:40.798 : en:Chapter 06
00:25:58.390 : en:Chapter 07
00:32:11.554 : en:Chapter 08
00:36:58.047 : en:Chapter 09
00:42:33.509 : en:Chapter 10
00:47:48.657 : en:Chapter 11
00:50:47.667 : en:Chapter 12
00:56:48.947 : en:Chapter 13
01:02:56.313 : en:Chapter 14
01:08:28.270 : en:Chapter 15
01:12:40.604 : en:Chapter 16
01:20:00.628 : en:Chapter 17
01:24:22.265 : en:Chapter 18
01:28:46.069 : en:Chapter 19
01:32:49.564 : en:Chapter 20
01:41:36.006 : en:Chapter 21

Релиз от:


_________________
Проголосуй за трекер Открытый торрент трекер - RUS-MEDIA.ORG

Проголосуй Открытый торрент трекер - RUS-MEDIA.ORG



реклама партнёра


Вернуться к началу
 Профиль Отправить личное сообщение  
 
   Похожие торренты   Автор   Торрент   Размер 
В этой теме нет новых непрочитанных сообщений. Кубо. Легенда о самурае / Kubo and the Two Strіngs [Мультфильм, полнометражный, фэнтези, 2016] BDRemux 1080p, Dub+Sub [3D-Video] [Лицензия]

salma3

16 | 39

37.66 ГБ

В этой теме нет новых непрочитанных сообщений. Кубо. Легенда о самурае / Kubo and the Two Strіngs [Мультфильм, полнометражный, фэнтези, 2016] HDRip-AVC, Dub+Sub [Лицензия]

salma3

118 | 32

1.95 ГБ

В этой теме нет новых непрочитанных сообщений. Кубо. Легенда о самурае / Kubo and the Two Strіngs (Мультфильм, полнометражный, фэнтези, приключения, семейный, 2016) BDRip 1080p от ExKinoRay | iTunes

marya111

109 | 27

12.85 ГБ

В этой теме нет новых непрочитанных сообщений. Кубо. Легенда о самурае / Kubo and the Two Strіngs (Мультфильм, полнометражный, фэнтези, приключения, семейный, 2016) BDRip 1080p от New-Team & qqss44 | iTunes

marya111

289 | 102

7.57 ГБ

В этой теме нет новых непрочитанных сообщений. Кубо. Легенда о самурае / Kubo and the Two Strіngs [Мультфильм, полнометражный, фэнтези, 2016] BDRip 720p, Dub [iTunes]

salma3

170 | 17

6.1 ГБ

В этой теме нет новых непрочитанных сообщений. Кубо. Легенда о самурае / Kubo and the Two Strіngs (Мультфильм, полнометражный, фэнтези, приключения, семейный, 2016) BDRip 720p от ExKinoRay | L

marya111

126 | 7

5.16 ГБ

В этой теме нет новых непрочитанных сообщений. Кубо. Легенда о самурае / Kubo and the Two Strіngs [Мультфильм, фэнтези, приключения, семейный, 2016] Blu-Ray EUR 1080p, Dub+Sub [Лицензия]

salma3

13 | 7

40.54 ГБ


СообщениеДобавлено: 03 май 2017, 13:00 

Не в сети
Супермодератор
Аватара пользователя
Дата регистрации:
15 фев 2012, 16:44
Возраст: 28
Спасибо: 6644 / 2146
Сообщения: 45843
salma3 писал(а):
Re: Кубо. Легенда о самурае / Kubo and the Two Strіngs [Мультфильм, полнометражный, фэнтези, 2016] BDRip 1080p, Dub+Sub [Лицензия]

_________________
Проголосуй за трекер Открытый торрент трекер - RUS-MEDIA.ORG

Проголосуй Открытый торрент трекер - RUS-MEDIA.ORG


Вернуться к началу
 Профиль Отправить личное сообщение  
 
Начать новую тему Ответить на тему  [ Сообщений: 2 ] 




Для Мосгорсуда, Роскомнадзора и рекламодателей:: mosgorsud-torrent[собачка]yandex.ru