Торрент файл
скачать торрент магнет ссылка Добавлен: 01 дек 2016, 01:13
Размер: 5.75 ГБ
Сидеров: 65
Личеров: 21
Автор

СообщениеДобавлено: 01 дек 2016, 01:13 

Не в сети
Дата регистрации:
28 сен 2016, 18:10
Спасибо: 62 / 0
Сообщения: 1040
Информация о фильме
✦ Год выхода: 2015
✦ Название: Хороший динозавр
✦ Жанр: мультфильм, фэнтези, комедия, приключения, семейный
✦ Оригинальное название: The Good Dinosaur
✦ Режиссер: Питер Сон
✦ В ролях: Джеффри Райт, Фрэнсис МакДорманд, Малиа Нипай-Падилья, Райан Типл, Джек МакГроу, Маркус Скрибнер, Рэймонд Очоа, Джек Брайт, Питер Сон, Стив Зан, Мэнди Фройнд, Стивен Клэй Хантер, А.Дж. Бакли, Анна Пакуин, Сэм Эллиотт, Дэвид Боат, Кэрри Пафф, Кэлам Грант, Джон Ратценбергер

Описание фильма
Представьте, что астероид, некогда навсегда изменивший жизнь на Земле, пролетел мимо нашей планеты и гигантские динозавры существуют по сей день — они далеко обогнали в развитии первобытных людей и создали собственную цивилизацию. Именно там возникла история невероятной дружбы юного бронтозавра Арло и маленького мальчика по имени Дружок. Этим на первый взгляд непохожим героям предстоит вместе совершить опасное путешествие в далекие и таинственные края, научиться бороться со своими страхами и понять, что они не так уж и отличаются друг от друга.

✦ Выпущено: США, Walt Disney Pictures, Pixar Animation Studios
✦ Продолжительность: 01:33:50
✦ Перевод: дублированный -
|| Лицензия ||

Информация о файле
✦ Формат:| MKV | x264 |
✦ Качество: BDRip 1080p
✦ Видео: X264/MPEG4-AVC | 1920x804 (2.40:1) | ~7500 kbps | 23.976 fps
✦ Аудио Rus: AC3 | 48 KHz | 5.1 (Front: L С R Side: L R) + LFE | ~640 kbps
✦ Аудио Eng: AC3 | 48 KHz | 5.1 (Front: L С R Side: L R) + LFE | ~640 kbps
✦ Субтитры: || (полные) | Английские (полные) |

x264 [info]: frame I:1178 Avg QP:17.27 size:269484
x264 [info]: frame P:47922 Avg QP:19.76 size: 61694
x264 [info]: frame B:85896 Avg QP:22.04 size: 23275
Общее
Уникальный идентификатор : 242000037854072201031428589960935743553 (0xB60F830ECD2354048F9A6668009BA041)
Полное имя : X:ATorrentThe.Good.Dinosaur.(2015).BDRip.1080p.(qqss44).mkv
Формат : Matroska
Версия формата : Version 2
Размер файла : 5,75 Гбайт
Продолжительность : 1 ч. 33 м.
Общий поток : 8775 Кбит/сек
Название фильма : The.Good.Dinosaur.(2015).BDRip.1080p.(qqss44)
Дата кодирования : UTC 2016-11-27 09:14:33
Программа кодирования : mkvmerge v7.9.0 ('Birds') 64bit
Библиотека кодирования : libebml v1.3.1 + libmatroska v1.4.2
Видео
Идентификатор : 1
Формат : AVC
Формат/Информация : Advanced Video Codec
Профиль формата : High@L4.1
Параметр CABAC формата : Да
Параметр ReFrames формата : 5 кадров
Идентификатор кодека : V_MPEG4/ISO/AVC
Продолжительность : 1 ч. 33 м.
Битрейт : 7500 Кбит/сек
Ширина : 1920 пикселей
Высота : 804 пикселя
Соотношение сторон : 2,40:1
Режим частоты кадров : Постоянный
Частота кадров : 23,976 (24000/1001) кадра/сек
Цветовое пространство : YUV
Субдискретизация насыщенности : 4:2:0
Битовая глубина : 8 бит
Тип развёртки : Прогрессивная
Бит/(Пиксели*Кадры) : 0.203
Размер потока : 4,91 Гбайт (85%)
Заголовок : The.Good.Dinosaur.(2015).BDRip.1080p.(qqss44)
Библиотека кодирования : x264 core 148 r2721kMod 72d53ab
Настройки программы : cabac=1 / ref=5 / deblock=1:0:0 / analyse=0x3:0x133 / me=umh / subme=11 / psy=1 / fade_compensate=0.00 / psy_rd=1.00:0.00 / mixed_ref=1 / me_range=32 / chroma_me=1 / trellis=2 / 8x8dct=1 / cqm=0 / deadzone=21,11 / fast_pskip=0 / chroma_qp_offset=-2 / threads=12 / lookahead_threads=2 / sliced_threads=0 / nr=0 / decimate=0 / interlaced=0 / bluray_compat=0 / constrained_intra=0 / fgo=0 / bframes=9 / b_pyramid=2 / b_adapt=2 / b_bias=0 / direct=3 / weightb=1 / open_gop=0 / weightp=2 / keyint=240 / keyint_min=23 / scenecut=40 / intra_refresh=0 / rc=2pass / mbtree=0 / bitrate=7500 / ratetol=1.0 / qcomp=0.60 / qpmin=0 / qpmax=69 / qpstep=4 / cplxblur=20.0 / qblur=0.5 / ip_ratio=1.40 / pb_ratio=1.30 / aq=3:0.70
Язык : English
Default : Да
Forced : Нет
Аудио #1
Идентификатор : 2
Формат : AC-3
Формат/Информация : Audio Coding 3
Расширение режима : CM (complete main)
Параметр Endianness формата : Big
Идентификатор кодека : A_AC3
Продолжительность : 1 ч. 33 м.
Вид битрейта : Постоянный
Битрейт : 640 Кбит/сек
Каналы : 6 каналов
Расположение каналов : Front: L C R, Side: L R, LFE
Частота : 48,0 КГц
Частота кадров : 31,250 кадров/сек (1536 spf)
Метод сжатия : С потерями
Размер потока : 430 Мбайт (7%)
Заголовок : DUB | DD5.1 @ 640 kbps
Язык : Russian
Default : Да
Forced : Нет
Аудио #2
Идентификатор : 3
Формат : AC-3
Формат/Информация : Audio Coding 3
Расширение режима : CM (complete main)
Параметр Endianness формата : Big
Идентификатор кодека : A_AC3
Продолжительность : 1 ч. 33 м.
Вид битрейта : Постоянный
Битрейт : 640 Кбит/сек
Каналы : 6 каналов
Расположение каналов : Front: L C R, Side: L R, LFE
Частота : 48,0 КГц
Частота кадров : 31,250 кадров/сек (1536 spf)
Метод сжатия : С потерями
Размер потока : 430 Мбайт (7%)
Заголовок : Original | DD5.1 @ 640 kbps
Язык : English
Default : Нет
Forced : Нет
Текст #1
Идентификатор : 4
Формат : UTF-8
Идентификатор кодека : S_TEXT/UTF8
Идентификатор кодека/Информация : UTF-8 Plain Text
Продолжительность : 1 ч. 24 м.
Битрейт : 37 бит/сек
Count of elements : 480
Размер потока : 22,8 Кбайт (0%)
Заголовок : Full
Язык : Russian
Default : Нет
Forced : Нет
Текст #2
Идентификатор : 5
Формат : UTF-8
Идентификатор кодека : S_TEXT/UTF8
Идентификатор кодека/Информация : UTF-8 Plain Text
Продолжительность : 1 ч. 21 м.
Битрейт : 24 бит/сек
Count of elements : 530
Размер потока : 14,4 Кбайт (0%)
Заголовок : Full
Язык : English
Default : Нет
Forced : Нет
Меню
00:00:00.000 : en:Chapter 01
00:03:37.967 : en:Chapter 02
00:06:16.459 : en:Chapter 03
00:08:14.160 : en:Chapter 04
00:12:12.606 : en:Chapter 05
00:14:33.914 : en:Chapter 06
00:17:42.352 : en:Chapter 07
00:21:10.644 : en:Chapter 08
00:22:58.168 : en:Chapter 09
00:26:41.057 : en:Chapter 10
00:29:02.615 : en:Chapter 11
00:33:10.363 : en:Chapter 12
00:35:28.668 : en:Chapter 13
00:38:14.458 : en:Chapter 14
00:41:08.841 : en:Chapter 15
00:45:42.948 : en:Chapter 16
00:47:47.948 : en:Chapter 17
00:51:48.271 : en:Chapter 18
00:55:46.968 : en:Chapter 19
01:00:22.952 : en:Chapter 20
01:03:59.001 : en:Chapter 21
01:05:27.214 : en:Chapter 22
01:07:11.777 : en:Chapter 23
01:11:06.428 : en:Chapter 24
01:13:43.377 : en:Chapter 25
01:16:01.431 : en:Chapter 26
01:19:08.493 : en:Chapter 27
01:23:56.865 : en:Chapter 28
01:26:01.114 : en:Chapter 29

[/font] Релиз от:




реклама партнёра


Вернуться к началу
 Профиль Отправить личное сообщение  
 
   Похожие торренты   Автор   Торрент   Размер 
В этой теме нет новых непрочитанных сообщений. Хороший динозавр / The Good Dinosaur [Мультфильм, фэнтези, комедия, приключения, семейный, 2015] BDRip 1080p, dub [чистый звук]

Dracon

324 | 12

4.5 ГБ

В этой теме нет новых непрочитанных сообщений. Хороший динозавр / The Good Dinosaur (Питер Сон) [2015, Мультфильм, фэнтези, комедия, приключения, семейный, BDRip 1080p | Чистый звук] Dub

marya111

142 | 5

4.51 ГБ

В этой теме нет новых непрочитанных сообщений. Хороший динозавр / The Good Dinosaur [Мультфильм, фэнтези, комедия, приключения, семейный, 2015] BDRip 1080p, dub [3D-Video | чистый звук]

Dracon

41 | 10

14.07 ГБ

В этой теме нет новых непрочитанных сообщений. Зверополис / Zootopia (мультфильм, боевик, комедия, криминал, приключения, семейный, 2016) BDRip 1080p от New-Team & qqss44 | Локализованная версия | Лицензия

marya111

310 | 87

7.75 ГБ

В этой теме нет новых непрочитанных сообщений. Хороший динозавр / The Good Dinosaur [Мультфильм, фэнтези, комедия, приключения, семейный, 2015] HDRip, dub [чистый звук]

Dracon

442 | 33

1.37 ГБ

В этой теме нет новых непрочитанных сообщений. Отряд самоубийц / Suicide Squad (Фантастика, боевик, триллер, комедия, криминал, приключения, 2016) BDRip 1080p от New-Team & qqss44 | Театральная версия | Лицензия

marya111

1361 | 294

7.74 ГБ

В этой теме нет новых непрочитанных сообщений. Полный расколбас / Sausage Party (фэнтези, комедия, приключения, 2016) BDRip 1080p от New-Team & qqss44 | iTunes

marya111

0 | 0

5.65 ГБ


Начать новую тему Ответить на тему  [ 1 сообщение ] 




Для Мосгорсуда, Роскомнадзора и рекламодателей:: mosgorsud-torrent[собачка]yandex.ru