Торрент файл
скачать торрент магнет ссылка Добавлен: 01 дек 2016, 01:13
Размер: 3.03 ГБ
Сидеров: 535
Личеров: 63
Автор

СообщениеДобавлено: 01 дек 2016, 01:13 

Не в сети
Дата регистрации:
28 сен 2016, 18:10
Спасибо: 55 / 0
Сообщения: 942
    Русское название: Красная черепаха
    Оригинальное название: The Red Turtle / La tortue rouge
    Год выхода: 2016
    Жанр: мультфильм, фэнтези
    Режиссер: Майкл Дадок де Уит
    Выпущено: Франция, Бельгия
    Продолжительность: 01:20:49
    Перевод: Не требуется. Нет диалогов


Сюжет фильма
    Мужчина попадает на необитаемый остров. Ему удаётся построить плот, но далеко уплыть не получается — красная черепаха пресекает все его попытки к бегству.


Файл
    Качество: BDRip 720p (исходник Blu-ray Disc)
    Контейнер: MKV (расширение файла)
    Видео: 1280x694, 4616 Кбит/сек, 59.940 кадр/сек, AVC, x264, High@L4.1, 1.85:1, 0.087 Бит/[Пиксели*Кадры]
    Аудио 1: AC-3, 640 Кбит/сек, 6 канала(ов), 48,0 КГц - Оригинал / Французский
    Субтитры: Нет
    Форсированные субтитры: Нет
    Чаптеры (Главы): Есть



Автор Рипа: Группа: мы в VK




Format : Matroska
Format version : Version 2
File size : 3.03 GiB
Duration : 1 h 20 min
Overall bit rate : 5 362 kb/s
Movie name : The Red Turtle.(2016).BDRip.720p.[envy].[60fps]
Encoded date : UTC 2016-11-29 15:41:07
Writing application : mkvmerge v5.8.0 ('No Sleep / Pillow') built on Sep 2 2012 15:37:04
Writing library : libebml v1.2.3 + libmatroska v1.3.0
Video
ID : 1
Format : AVC
Format/Info : Advanced Video Codec
Format profile : High@L4.1
Format settings, CABAC : Yes
Format settings, ReFrames : 9 frames
Codec ID : V_MPEG4/ISO/AVC
Duration : 1 h 20 min
Bit rate : 4 616 kb/s
Width : 1 280 pixels
Height : 694 pixels
Display aspect ratio : 1.85:1
Frame rate mode : Constant
Frame rate : 59.940 (60000/1001) FPS
Color space : YUV
Chroma subsampling : 4:2:0
Bit depth : 8 bits
Scan type : Progressive
Bits/(Pixel*Frame) : 0.087
Stream size : 2.61 GiB (86%)
Title : The Red Turtle.(2016).BDRip.720p.[envy].[60fps]
Writing library : x264 core 146 r2538 121396c
Encoding settings : cabac=1 / ref=9 / deblock=1:0:0 / analyse=0x3:0x113 / me=umh / subme=8 / psy=1 / psy_rd=1.00:0.00 / mixed_ref=1 / me_range=24 / chroma_me=1 / trellis=2 / 8x8dct=1 / cqm=0 / deadzone=21,11 / fast_pskip=0 / chroma_qp_offset=-2 / threads=12 / lookahead_threads=3 / sliced_threads=0 / nr=0 / decimate=1 / interlaced=0 / bluray_compat=0 / constrained_intra=0 / bframes=5 / b_pyramid=2 / b_adapt=2 / b_bias=0 / direct=3 / weightb=1 / open_gop=0 / weightp=2 / keyint=250 / keyint_min=25 / scenecut=40 / intra_refresh=0 / rc_lookahead=40 / rc=crf / mbtree=0 / crf=17.5 / qcomp=0.60 / qpmin=0 / qpmax=69 / qpstep=4 / vbv_maxrate=14000 / vbv_bufsize=14000 / crf_max=0.0 / nal_hrd=none / filler=0 / ip_ratio=1.40 / pb_ratio=1.30 / aq=3:1.00
Language : English
Default : Yes
Forced : No
Audio
ID : 2
Format : AC-3
Format/Info : Audio Coding 3
Mode extension : CM (complete main)
Format settings, Endianness : Big
Codec ID : A_AC3
Duration : 1 h 20 min
Bit rate mode : Constant
Bit rate : 640 kb/s
Channel(s) : 6 channels
Channel positions : Front: L C R, Side: L R, LFE
Sampling rate : 48.0 kHz
Frame rate : 31.250 FPS (1536 spf)
Compression mode : Lossy
Stream size : 370 MiB (12%)
Title : Fre
Language : French
Default : Yes
Forced : No
Menu
00:00:00.000 : :00:00:00.000
00:07:15.685 : :00:07:15.685
00:17:34.720 : :00:17:34.720
00:27:39.366 : :00:27:39.366
00:36:32.148 : :00:36:32.148
00:46:00.257 : :00:46:00.257
00:55:55.143 : :00:55:55.143
01:07:01.893 : :01:07:01.893
01:16:37.426 : :01:16:37.426

Прежде чем скачивать фильм полностью, скачайте "сэмпл", и проверьте будет ли воспроизводится видео на вашем устройстве!
Q: Присутствуют ли артефакты на изображении?
A: Да, есть, и будут, какие настройки скрипта не вписывай они будут постоянно! Так как это дорисованные кадры из исходных + Видео ряд обработан фильтром "Sharp"
Q: У меня не запускается видео на компьютере?
A: Обновите кодеки. (попробуйте другие видео проигрыватели)
Q: У меня идет рассинхрон звука и видео?
A: Проблема в мощности компьютера. (возможно также нужно обновить кодеки)
Q: Что нужно для воспроизведения данного видео.
A: Что рекомендуется для воспроизведения мной:
Процессор: 4х ядерный
Видео карта: минимум 512Мб. И желательно включить обработку изображения с помощью видео карты. (Деинтерлейсинг, подавление блочности и т.д.)
ОЗУ: 2-4Гб
Проигрыватели.
MPC-HC (Media Player Classic - Home Cinema)
The KMPlayer (Korean Multimedia Player) (оптимальный вариант)
Mirillis Splash PRO (Если что то проигрыватель сам может преобразовывать видео вплоть до частоты кадров монитора. Или тех же 60fps.)

^Прежде чем отписывать комментарии по качеству, прочитайте спойлер!
Внимание: Данные фильмы делаются (кому нужно знает где) с обязательным указанием ||60FPS|| !




реклама партнёра


Вернуться к началу
 Профиль Отправить личное сообщение  
 
   Похожие торренты   Автор   Торрент   Размер 
В этой теме нет новых непрочитанных сообщений. Красная черепаха / The Red Turtle / La tortue rouge [мультфильм, фэнтези, 2016] HDRip

salma3

232 | 45

1.45 ГБ

В этой теме нет новых непрочитанных сообщений. Полный расколбас / Sausage Party (мультфильм, фэнтези, комедия, приключения, 2016) BDRip 720p от NNNB | D, A

marya111

0 | 0

4.37 ГБ

В этой теме нет новых непрочитанных сообщений. Красная скрипка / Le Violon rouge [драма, мелодрама, детектив, музыка, 1998] BDRip 720p, Mvo+Sub

salma3

10 | 3

6.97 ГБ

В этой теме нет новых непрочитанных сообщений. Кубо. Легенда о самурае / Kubo and the Two Strіngs [Мультфильм, полнометражный, фэнтези, 2016] BDRip 720p, Mvo

salma3

1063 | 228

5.16 ГБ

В этой теме нет новых непрочитанных сообщений. Красная сирена / La Sirene Rouge / Red Siren [криминал, 2002] DVD5, Mvo

salma3

2 | 4

4.15 ГБ

В этой теме нет новых непрочитанных сообщений. Красная шапочка  / Little Red Riding Hood (Рене Перез) [ужасы, фэнтези, 2015] BDRip 720p, dvo

Dracon

10 | 3

3.09 ГБ

В этой теме нет новых непрочитанных сообщений. Кровный отец / Blood Father (боевик, триллер, криминал, 2016) BDRemux 1080p от NNNB | A, L

marya111

0 | 0

21.19 ГБ


Начать новую тему Ответить на тему  [ 1 сообщение ] 




Для Мосгорсуда, Роскомнадзора и рекламодателей:: mosgorsud-torrent[собачка]yandex.ru